Страшные сказки / Il racconto dei racconti (2015) BDRip [H.264]

 

Создавать темы 12-Сен-2015 10:23

- Страшные сказки / Il racconto dei racconti (2015) BDRip [H.264]- Производство: Италия, Франция, Великобритания / Amer, Apulia Film Commission, Archimede
Жанр: Фэнтези, Мелодрама
Режиссер: Маттео Гарроне
Продюсер: Маттео Гарроне, Энн Лабади, Жан Лабади
Актеры: Сальма Хайек, Венсан Кассель, Тоби Джонс, Джон Си. Райли, Альба Рорвахер-Описание:
Маги и волшебники, короли и королевы, красавицы-принцессы и страшилы-великаны населяют эту потрясающую готическую фантазию. Сластолюбивый Король Одинокого Утеса берет в жены прелестную деву, а она превращается в уродливую старуху. Отважный Король Долины Туманов отправляется на бой с драконом, поскольку волшебник предсказал, что королева понесет ребенка, если съест сердце дракона. Ну, а Король Диких Гор с любовью выращивает гигантскую блоху, а родную дочь без тени сожаления отдает в жены горному орку. За стенами величественных замков строятся коварные козни, даются безрассудные обеты, там страстно любят и жестоко убивают…-Дата мировой премьеры: 14 мая 2015
Дата премьеры в России: 10 сентября 2015, «Cinema Prestige»-Продолжительность: 02:13:46
Качество видео: BDRip [H.264]
Перевод: Профессиональный (многоголосый, закадровый) (Paradox & Omskbirdrecords)
Вид субтитров: вшитые, отключаемые
Язык субтитров: русский, английский-Видео: MPEG-4 AVC/H.264, 2000 Кбит/с, 1024x434, 24.000 кадр/с
Аудио: Русский - 48.0 KHz, AC3, 6 ch, 448 Кбит/с
Аудио: Английский - 48.0 KHz, AC3, 6 ch, 384 Кбит/с

Mediainfo:

General
Unique ID                                : 200952686438195026140605719568630855980 (0x972E1462156AA8A9A27D5FB343AEB92C)
Complete name                            : Tale.of.Tales.2015.P.Eng.AVC.BluRay.x264.mkv
Format                                   : Matroska
Format version                           : Version 4 / Version 2
File size                                : 2.65 GiB
Duration                                 : 2h 13mn
Overall bit rate                         : 2 834 Kbps
Encoded date                             : UTC 2015-08-29 18:15:46
Writing application                      : mkvmerge v8.1.0 ('Psychedelic Postcard') 32bit
Writing library                          : Lavf56.22.100
DURATION                                 : 01:59:59.166000000
NUMBER_OF_FRAMES                         : 636
NUMBER_OF_BYTES                          : 17393
_STATISTICS_WRITING_APP                  : mkvmerge v8.1.0 ('Psychedelic Postcard') 32bit
_STATISTICS_WRITING_DATE_UTC             : 2015-09-11 18:31:19
_STATISTICS_TAGS                         : BPS DURATION NUMBER_OF_FRAMES NUMBER_OF_BYTES
Video
ID                                       : 1
Format                                   : AVC
Format/Info                              : Advanced Video Codec
Format profile                           : [url=mailto:[email protected]][email protected][/url]
Format settings, CABAC                   : Yes
Format settings, ReFrames                : 10 frames
Codec ID                                 : V_MPEG4/ISO/AVC
Duration                                 : 2h 13mn
Bit rate                                 : 2 000 Kbps
Width                                    : 1 024 pixels
Height                                   : 434 pixels
Display aspect ratio                     : 2.35:1
Frame rate mode                          : Constant
Frame rate                               : 24.000 fps
Standard                                 : Component
Color space                              : YUV
Chroma subsampling                       : 4:2:0
Bit depth                                : 8 bits
Scan type                                : Progressive
Bits/(Pixel*Frame)                       : 0.188
Stream size                              : 1.82 GiB (69%)
Writing library                          : x264 core 144 r2525
Encoding settings                        : cabac=1 / ref=10 / deblock=1:0:0 / analyse=0x3:0x102 / me=umh / subme=9 / psy=1 / psy_rd=1.00:1.00 / mixed_ref=0 / me_range=32 / chroma_me=1 / trellis=1 / 8x8dct=1 / cqm=0 / deadzone=21,21 / fast_pskip=1 / chroma_qp_offset=-4 / threads=6 / lookahead_threads=1 / sliced_threads=0 / nr=0 / decimate=1 / interlaced=0 / bluray_compat=0 / constrained_intra=0 / bframes=10 / b_pyramid=0 / b_adapt=1 / b_bias=10 / direct=3 / weightb=1 / open_gop=1 / weightp=2 / keyint=240 / keyint_min=24 / scenecut=40 / intra_refresh=0 / rc_lookahead=35 / rc=2pass / mbtree=1 / bitrate=2000 / ratetol=1.0 / qcomp=0.90 / qpmin=18 / qpmax=69 / qpstep=11 / cplxblur=20.0 / qblur=0.5 / vbv_maxrate=35000 / vbv_bufsize=54000 / nal_hrd=none / filler=0 / ip_ratio=1.40 / aq=1:1.00
Default                                  : Yes
Forced                                   : No
DURATION                                 : 02:13:45.959000000
NUMBER_OF_FRAMES                         : 192623
NUMBER_OF_BYTES                          : 2006788904
_STATISTICS_WRITING_APP                  : mkvmerge v8.1.0 ('Psychedelic Postcard') 32bit
_STATISTICS_WRITING_DATE_UTC             : 2015-09-11 18:31:19
_STATISTICS_TAGS                         : BPS DURATION NUMBER_OF_FRAMES NUMBER_OF_BYTES
Audio #1
ID                                       : 2
Format                                   : AC-3
Format/Info                              : Audio Coding 3
Mode extension                           : CM (complete main)
Format settings, Endianness              : Big
Codec ID                                 : A_AC3
Duration                                 : 2h 13mn
Bit rate mode                            : Constant
Bit rate                                 : 384 Kbps
Channel count                            : 6 channels
Channel positions                        : Front: L C R, Side: L R, LFE
Sampling rate                            : 48.0 KHz
Bit depth                                : 16 bits
Compression mode                         : Lossy
Delay relative to video                  : -42ms
Stream size                              : 367 MiB (14%)
Language                                 : English
Default                                  : No
Forced                                   : No
Audio #2
ID                                       : 3
Format                                   : AC-3
Format/Info                              : Audio Coding 3
Mode extension                           : CM (complete main)
Format settings, Endianness              : Big
Codec ID                                 : A_AC3
Duration                                 : 2h 13mn
Bit rate mode                            : Constant
Bit rate                                 : 448 Kbps
Channel count                            : 6 channels
Channel positions                        : Front: L C R, Side: L R, LFE
Sampling rate                            : 48.0 KHz
Bit depth                                : 16 bits
Compression mode                         : Lossy
Delay relative to video                  : -42ms
Stream size                              : 429 MiB (16%)
Language                                 : Russian
Default                                  : Yes
Forced                                   : No
Text #1
ID                                       : 4
Format                                   : UTF-8
Codec ID                                 : S_TEXT/UTF8
Codec ID/Info                            : UTF-8 Plain Text
Language                                 : Russian
Default                                  : No
Forced                                   : No
Text #2
ID                                       : 5
Format                                   : UTF-8
Codec ID                                 : S_TEXT/UTF8
Codec ID/Info                            : UTF-8 Plain Text
Language                                 : English
Default                                  : No
Forced                                   : No
Menu
00:00:00.000                             : en:Chapter 1
00:08:36.792                             : en:Chapter 2
00:19:37.750                             : en:Chapter 3
00:26:20.250                             : en:Chapter 4
00:36:05.000                             : en:Chapter 5
00:44:24.083                             : en:Chapter 6
00:56:14.458                             : en:Chapter 7
01:09:24.583                             : en:Chapter 8
01:24:24.625                             : en:Chapter 9
01:33:59.333                             : en:Chapter 10
01:47:49.333                             : en:Chapter 11
02:01:58.917                             : en:Chapter 12
Скриншоты:
Время раздачи: 24/7
Яндекс.Метрика
Рейтинг@Mail.ru