Миньоны / Minions (2015) HDTVRip [H.264/1080p-LQ] [Line]

 

Создавать темы 12-Сен-2015 00:03

- Миньоны / Minions (2015) HDTVRip [H.264/1080p-LQ] - Производство: США / Illumination Entertainment
Жанр: Комедия, Семейный
Режиссер: Кайл Балда, Пьер Соффин
Продюсер: Джанет Хили, Кристофер Меледандри, Крис Рено
Актеры: Сандра Буллок, Джон Хэмм, Майкл Китон, Эллисон Дженни, Стив Куган, Дженнифер Сондерс, Джеффри Раш, Стив Карелл, Пьер Соффин, Кэти Миксон
Описание:
Миньоны живут на планете на пару миллионов лет дольше нас. У них одна навязчивая идея — служить самой Гадкой личности из имеющихся в наличии. Динозавры, фараоны, Дракула, Наполеон — все они оказались недолговечны. И тогда миньоны рванули в Нью-Йорк. Их ждут деньги, власть, роковая суперзлодейка Скарлет Оверкилл и, конечно же, вкуснейшая «банана»! Во всяком случае, так им кажется.-Дата мировой премьеры: 17 июня 2015
Дата премьеры в России: 9 июля 2015, «UPI»

Релиз от: Электричка

Продолжительность: 01:26:18
Качество видео: HDTVRip 1080p-LQ
Перевод: Дублированный (чистый звук)
Cубтитры: Отсутствуют
Видео: AVC/H.264, 1920x1036, 4393 kb/s
Аудио#1: AC3, 2 ch, 192 kb/s (Русский)
Аудио#2: AC3, 2 ch, 256 kb/s (Английский)
Семпл: Скачать

Mediainfo:

Общее
Уникальный идентификатор                 : 227150452259305178657929665341119865436 (0xAAE395F6400D53AB85F7E5B9AD55225C)
Полное имя                               : Miniony.2015.D.HDTVRip.1080p.nnm-club.mkv
Формат                                   : Matroska
Версия формата                           : Version 4 / Version 2
Размер файла                             : 2,98 Гбайт
Продолжительность                        : 1 ч. 26 м.
Общий поток                              : 4939 Кбит/сек
Название фильма                          : M1n1oNy.2015.D.HDTVRip.1080p.ELEKTRI4KA.uniongang.tv [Carl Gaus]
Дата кодирования                         : UTC 2015-09-10 09:49:23
Программа кодирования                    : mkvmerge v8.3.0 ('Over the Horizon') 64bit
Библиотека кодирования                   : libebml v1.3.1 + libmatroska v1.4.2
Attachements                             : cover_land.jpg / small_cover.jpg / small_cover_land.jpg / cover.jpg
DURATION                                 : 01:26:18.592000000
NUMBER_OF_FRAMES                         : 161831
NUMBER_OF_BYTES                          : 165714944
_STATISTICS_WRITING_APP                  : mkvmerge v8.3.0 ('Over the Horizon') 64bit
_STATISTICS_WRITING_DATE_UTC             : 2015-09-10 09:49:23
_STATISTICS_TAGS                         : BPS DURATION NUMBER_OF_FRAMES NUMBER_OF_BYTES
Видео
Идентификатор                            : 1
Формат                                   : AVC
Формат/Информация                        : Advanced Video Codec
Профиль формата                          : [url=mailto:[email protected]][email protected][/url]
Параметр CABAC формата                   : Да
Параметр ReFrames формата                : 9 кадров
Идентификатор кодека                     : V_MPEG4/ISO/AVC
Продолжительность                        : 1 ч. 26 м.
Битрейт                                  : 4393 Кбит/сек
Ширина                                   : 1920 пикселей
Высота                                   : 1036 пикселей
Соотношение сторон                       : 1,85:1
Режим частоты кадров                     : Постоянный
Частота кадров                           : 23,976 кадра/сек
Цветовое пространство                    : YUV
Субдискретизация насыщенности            : 4:2:0
Битовая глубина                          : 8 бит
Тип развёртки                            : Прогрессивная
Бит/(Пиксели*Кадры)                      : 0.092
Размер потока                            : 2,65 Гбайт (89%)
Заголовок                                : M1n1oNy.2015.D.HDTVRip.1080p.ELEKTRI4KA.uniongang.tv [Carl Gaus]
Библиотека кодирования                   : x264 core 140 r2377 1ca7bb9
Настройки программы                      : cabac=1 / ref=9 / deblock=1:-1:-1 / analyse=0x3:0x113 / me=umh / subme=10 / psy=1 / psy_rd=0.90:0.00 / mixed_ref=1 / me_range=24 / chroma_me=1 / trellis=2 / 8x8dct=1 / cqm=0 / deadzone=21,11 / fast_pskip=0 / chroma_qp_offset=-2 / threads=6 / lookahead_threads=1 / sliced_threads=0 / nr=0 / decimate=1 / interlaced=0 / bluray_compat=0 / constrained_intra=0 / bframes=5 / b_pyramid=2 / b_adapt=1 / b_bias=0 / direct=3 / weightb=1 / open_gop=0 / weightp=2 / keyint=250 / keyint_min=23 / scenecut=40 / intra_refresh=0 / rc_lookahead=60 / rc=crf / mbtree=1 / crf=20.0 / qcomp=0.60 / qpmin=16 / qpmax=69 / qpstep=4 / ip_ratio=1.40 / aq=1:1.00
Язык                                     : English
Default                                  : Да
Forced                                   : Нет
DURATION                                 : 01:26:18.575000000
NUMBER_OF_FRAMES                         : 124161
NUMBER_OF_BYTES                          : 2905702791
_STATISTICS_WRITING_APP                  : mkvmerge v8.3.0 ('Over the Horizon') 64bit
_STATISTICS_WRITING_DATE_UTC             : 2015-09-10 09:49:23
_STATISTICS_TAGS                         : BPS DURATION NUMBER_OF_FRAMES NUMBER_OF_BYTES
Аудио #1
Идентификатор                            : 2
Формат                                   : AC-3
Формат/Информация                        : Audio Coding 3
Расширение режима                        : CM (complete main)
Параметр Endianness формата              : Big
Идентификатор кодека                     : A_AC3
Продолжительность                        : 1 ч. 26 м.
Вид битрейта                             : Постоянный
Битрейт                                  : 192 Кбит/сек
Каналы                                   : 2 канала
Расположение каналов                     : Front: L R
Частота                                  : 48,0 КГц
Метод сжатия                             : С потерями
Размер потока                            : 119 Мбайт (4%)
Заголовок                                : Line - M1n1oNy.2015.D.HDTVRip.1080p.ELEKTRI4KA.uniongang.tv [Carl Gaus]
Язык                                     : Russian
Default                                  : Да
Forced                                   : Нет
Аудио #2
Идентификатор                            : 3
Формат                                   : AC-3
Формат/Информация                        : Audio Coding 3
Расширение режима                        : CM (complete main)
Параметр Endianness формата              : Big
Идентификатор кодека                     : A_AC3
Продолжительность                        : 1 ч. 26 м.
Вид битрейта                             : Постоянный
Битрейт                                  : 256 Кбит/сек
Каналы                                   : 2 канала
Расположение каналов                     : Front: L R
Частота                                  : 48,0 КГц
Метод сжатия                             : С потерями
Размер потока                            : 158 Мбайт (5%)
Заголовок                                : M1n1oNy.2015.D.HDTVRip.1080p.ELEKTRI4KA.uniongang.tv [Carl Gaus]
Язык                                     : English
Default                                  : Нет
Forced                                   : Нет
Скриншоты:
Яндекс.Метрика
Рейтинг@Mail.ru