Лондонские каникулы / A Royal Night Out (2015,триллер, драма, мелодрама) BDRip 720p | iTunes

 

Создавать темы 11-Сен-2015 07:17

-Лондонские каникулы / A Royal Night Out (2015) BDRip 720p-Информация о фильме
Название: Лондонские каникулы
Оригинальное название: A Royal Night Out
Страна: Великобритания
Студия: Ecosse Films, Filmgate Films
Жанр: триллер, драма, мелодрама
Год выпуска: 2015
Продолжительность: 01:37:09
Перевод: Профессиональный (дублированный) iTunes
Cубтитры: английские
Оригинальная аудиодорожка: английский
Режиссер: Джулиан Джаррольд / Julian Jarrold-В ролях: Сара Гадон, Эмили Уотсон, Джек Рейнор, Руперт Эверетт, Бел Паули, Роджер Аллам, Джек Гордон, Анастасия Харрольд, Джек Лэски, Рут Шин-Описание: День Победы, 1945 г., Англия, королевская семья готовится к торжественным выступлениям в честь завершения кровопролитной войны, а в городе уже во всю идут празднества и гулянки, окунуться в которые принцессе Маргарет и ее сестре Элизабет было бы большим удовольствием после стольких лет «тяжелой» королевской жизни под надзором всех и вся. Знатные родители, пусть и нехотя, но отпускают дочерей на праздник с тем условием, что к ним приставят двух сопровождающих, только вот, как это часто бывает в подобных ситуациях, им удается ускользнуть их под взора надсмотрщиков, что приводит к тому, что их ждет, наверное, самая длинная, запоминающаяся и свободная ночь в их жизни…- -Тип релиза: BDRip 720p / Tonik
Контейнер: MKV
Видео: MPEG-4 AVC, B-frame~11, 4529 Кбит/с, 1280x534, 23,976 fps
Аудио: Rus, AC3, 384 kb/s (6 ch), 48 kHz
Аудио 2: Eng, DTS, 1510 kb/s (6 ch), 48 kHz
Формат субтитров: softsub (SRT)

MediaInfo

x264 [info]: frame I:1011 Avg QP:11.68 size:112537
x264 [info]: frame P:28864 Avg QP:13.41 size: 49667
x264 [info]: frame B:109901 Avg QP:14.92 size: 16800
x264 [info]: consecutive B-frames: 1.9% 1.9% 7.5% 14.9% 20.2% 38.9% 6.4% 1.6% 2.0% 1.4% 1.7% 1.5%
Format : Matroska
Format version : Version 4 / Version 2
File size : 4.45 GiB
Duration : 1h 37mn
Overall bit rate : 6 553 Kbps
Movie name : Лондонские каникулы. (Tonik)
Encoded date : UTC 2015-09-11 01:37:20
Writing application : mkvmerge v7.1.0 ('Good Love') 64bit built on Jul 27 2014 13:06:55
Writing library : libebml v1.3.0 + libmatroska v1.4.1
_STATISTICS_WRITING_APP : mkvmerge v7.1.0 ('Good Love') 64bit built on Jul 27 2014 13:06:55
_STATISTICS_WRITING_DATE_UTC : 2015-09-11 01:37:20
_STATISTICS_TAGS : BPS DURATION NUMBER_OF_FRAMES NUMBER_OF_BYTES
DURATION : 01:31:02.666000000
NUMBER_OF_FRAMES : 1538
NUMBER_OF_BYTES : 41548
Video
ID : 1
Format : AVC
Format/Info : Advanced Video Codec
Format profile : [email protected]
Format settings, CABAC : Yes
Format settings, ReFrames : 12 frames
Codec ID : V_MPEG4/ISO/AVC
Duration : 1h 37mn
Bit rate : 4 529 Kbps
Width : 1 280 pixels
Height : 534 pixels
Display aspect ratio : 2.40:1
Frame rate mode : Constant
Frame rate : 23.976 fps
Color space : YUV
Chroma subsampling : 4:2:0
Bit depth : 8 bits
Scan type : Progressive
Bits/(Pixel*Frame) : 0.276
Stream size : 3.07 GiB (69%)
Title : Tonik
Writing library : x264 core 148 r2579 73ae2d1
Encoding settings : cabac=1 / ref=12 / deblock=1:-3:-3 / analyse=0x3:0x133 / me=umh / subme=11 / psy=1 / psy_rd=1.00:0.00 / mixed_ref=1 / me_range=32 / chroma_me=1 / trellis=2 / 8x8dct=1 / cqm=0 / deadzone=21,11 / fast_pskip=0 / chroma_qp_offset=-2 / threads=12 / lookahead_threads=3 / sliced_threads=0 / nr=0 / decimate=1 / interlaced=0 / bluray_compat=0 / constrained_intra=0 / bframes=11 / b_pyramid=2 / b_adapt=2 / b_bias=0 / direct=1 / weightb=1 / open_gop=0 / weightp=2 / keyint=250 / keyint_min=23 / scenecut=40 / intra_refresh=0 / rc=crf / mbtree=0 / crf=15.8 / qcomp=0.60 / qpmin=0 / qpmax=69 / qpstep=4 / ip_ratio=1.40 / pb_ratio=1.30 / aq=1:1.00
Language : English
Default : Yes
Forced : No
_STATISTICS_WRITING_APP : mkvmerge v7.1.0 ('Good Love') 64bit built on Jul 27 2014 13:06:55
_STATISTICS_WRITING_DATE_UTC : 2015-09-11 01:37:20
_STATISTICS_TAGS : BPS DURATION NUMBER_OF_FRAMES NUMBER_OF_BYTES
DURATION : 01:37:09.830000000
NUMBER_OF_FRAMES : 139776
NUMBER_OF_BYTES : 3393727870
Audio #1
ID : 2
Format : AC-3
Format/Info : Audio Coding 3
Mode extension : CM (complete main)
Format settings, Endianness : Big
Codec ID : A_AC3
Duration : 1h 37mn
Bit rate mode : Constant
Bit rate : 384 Kbps
Channel(s) : 6 channels
Channel positions : Front: L C R, Side: L R, LFE
Sampling rate : 48.0 KHz
Bit depth : 16 bits
Compression mode : Lossy
Stream size : 267 MiB (6%)
Language : Russian
Default : Yes
Forced : No
Audio #2
ID : 3
Format : DTS
Format/Info : Digital Theater Systems
Mode : 16
Format settings, Endianness : Big
Codec ID : A_DTS
Duration : 1h 37mn
Bit rate mode : Constant
Bit rate : 1 509 Kbps
Channel(s) : 6 channels
Channel positions : Front: L C R, Side: L R, LFE
Sampling rate : 48.0 KHz
Bit depth : 24 bits
Compression mode : Lossy
Stream size : 1.02 GiB (23%)
Language : English
Default : No
Forced : No
Text
ID : 4
Format : UTF-8
Codec ID : S_TEXT/UTF8
Codec ID/Info : UTF-8 Plain Text
Language : English
Default : No
Forced : No

Скриншоты

Яндекс.Метрика
Рейтинг@Mail.ru