[ Сегодня на трекере фрилич! Идет свободное скачивание без начисления Download ]

Viasat Nature: BBC: Экспедиция в Новую Гвинею / Expedition New Guinea [серии 1-3 из 3]

 

Создавать темы 10-Сен-2015 16:46

Viasat Nature: BBC: Экспедиция в Новую Гвинею / Expedition New Guinea [серии 1-3 из 3]- Год выпуска: 2009
Страна: Великобритания, BBC
Жанр: Документальный, природа, флора, фауна
Продолжительность: 3x~00:51:12
Перевод: Профессиональный (одноголосый), переведено и озвучено на студии "SDI Media" перевод Татьяны Вишневской, текст читает Роман Антанович
Режисер: Джони Янг / Jonny Young-Описание:- Вместе с международной командой ученых мы отправимся в один из самых удивительных уголков нашей планеты. Мы посетим остров Новая Гвинея, который является вторым по величине островом мира, больше него только Гренландия. Близость к экватору и удаленность от цивилизации сделала этот остров настоящим раем для дикой природы. Остров изобилует огромным разнообразием флоры и фауны: джунгли, водопады, горные районы, многовековые болота, древние коралловые рифы, известняковые скалы, травянистые равнины, тысячи видов экзотических растений и уникальных животных, насекомых и птиц, некоторые из которых считались вымершими или были до сих пор неизвестны ученым.-Список серий:-1-я серия
Международная команда ученых отправляется на изучение Новой Гвинеи – неисследованного тропического острова, который приютил тысячи удивительнейших животных.
2-я серия
Команда ученых разбивают лагерь недалеко от потухшего . Их целью является поиск редких животных, которые находятся под угрозой уничтожения.
3-я серия
Стив Бэкшэл вместе с командой ученых спускается в кратер потухшего , они станут первыми чужаками, оказавшимися в центре спрятанного от людских глаз животного мира.-Качество: HDTVRip 720p
Контейнер: AVI
Видео кодек: H.26x
Аудио кодек: AC3
Видео: 1280x720 25fps 4000 Kbps
Аудио: AC3, 2ch, 192 kbps, 48 kHz-

MediaInfo

Format : Matroska
Format version : Version 4 / Version 2
File size : 1.50 GiB
Duration : 51mn 12s
Overall bit rate mode : Variable
Overall bit rate : 4 189 Kbps
Encoded date : UTC 2015-05-03 13:13:57
Writing application : mkvmerge v7.8.0 ('River Man') 64bit built on Mar 27 2015 16:31:37
Writing library : libebml v1.3.1 + libmatroska v1.4.2
DURATION : 00:51:12.319000000
NUMBER_OF_FRAMES : 76808
NUMBER_OF_BYTES : 1534358066
_STATISTICS_WRITING_APP : mkvmerge v7.8.0 ('River Man') 64bit built on Mar 27 2015 16:31:37
_STATISTICS_WRITING_DATE_UTC : 2015-05-03 13:13:57
_STATISTICS_TAGS : BPS DURATION NUMBER_OF_FRAMES NUMBER_OF_BYTES
Video
ID : 1
Format : AVC
Format/Info : Advanced Video Codec
Format profile : [email protected]
Format settings, CABAC : Yes
Format settings, ReFrames : 3 frames
Codec ID : V_MPEG4/ISO/AVC
Duration : 51mn 12s
Bit rate mode : Variable
Bit rate : 4 000 Kbps
Maximum bit rate : 8 000 Kbps
Width : 1 280 pixels
Height : 720 pixels
Display aspect ratio : 16:9
Frame rate mode : Constant
Frame rate : 25.000 fps
Standard : NTSC
Color space : YUV
Chroma subsampling : 4:2:0
Bit depth : 8 bits
Scan type : Progressive
Bits/(Pixel*Frame) : 0.174
Stream size : 1.40 GiB (93%)
Writing library : x264 core 114
Encoding settings : cabac=1 / ref=3 / deblock=1:0:0 / analyse=0x3:0x113 / me=hex / subme=7 / psy=1 / psy_rd=1.00:0.00 / mixed_ref=1 / me_range=16 / chroma_me=1 / trellis=1 / 8x8dct=1 / cqm=2 / deadzone=21,11 / fast_pskip=1 / chroma_qp_offset=-4 / threads=6 / sliced_threads=0 / slices=1 / nr=0 / decimate=1 / interlaced=0 / constrained_intra=0 / bframes=3 / b_pyramid=0 / b_adapt=1 / b_bias=0 / direct=1 / weightb=1 / open_gop=0 / weightp=2 / keyint=250 / keyint_min=25 / scenecut=40 / intra_refresh=0 / rc_lookahead=40 / rc=2pass / mbtree=1 / bitrate=4000 / ratetol=1.0 / qcomp=0.60 / qpmin=5 / qpmax=69 / qpstep=4 / cplxblur=20.0 / qblur=0.5 / vbv_maxrate=8000 / vbv_bufsize=7995 / nal_hrd=vbr / ip_ratio=1.40 / aq=1:1.00
Default : Yes
Forced : No
Color range : Limited
Color primaries : BT.709
Transfer characteristics : BT.709
Matrix coefficients : BT.709
Audio
ID : 2
Format : AC-3
Format/Info : Audio Coding 3
Mode extension : CM (complete main)
Format settings, Endianness : Big
Codec ID : A_AC3
Duration : 51mn 12s
Bit rate mode : Constant
Bit rate : 192 Kbps
Channel(s) : 2 channels
Channel positions : Front: L R
Sampling rate : 48.0 KHz
Compression mode : Lossy
Stream size : 70.3 MiB (5%)
Default : Yes
Forced : No
-Скриншоты--Время раздачи: 24/7 (круглосуточно)
Яндекс.Метрика
Рейтинг@Mail.ru