Драйвер на ночь / Stretch (2014) BDRip [H.264/720p]

 

Создавать темы 09-Сен-2015 19:15

-Драйвер на ночь / Stretch (2014) BDRip [H.264/720p]«Ерунда случается»- Производство: США / Universal Pictures, Blumhouse Productions, Chambara Pictures
Жанр: триллер, комедия
Режиссер: Джо Карнахан
Продюсер: Джейсон Блум, Джо Карнахан, Леон Коркос
Актеры: Патрик Уилсон, Эд Хелмс, Джеймс Бэдж Дэйл, Бруклин Декер, Крис Пайн, Джессика Альба, Рэй Лиотта, Дэвид Хассельхофф, Рэнди Кутюр, Минди Робинсон
Описание:
Кевин — мужчина средних лет, который так и не смог наладить свою жизнь. Он — водитель лимузина, которого бросила девушка и который проиграл крупную сумму плохим парням. Эти люди не любят долго ждать и дают время до полуночи, чтобы он полностью погасил долг. Пытаясь отыскать необходимую сумму, Кевин становится водителем загадочного миллионера, который славится очень хорошими чаевыми. Казалось, что ему крупно повезло, однако в погоне за необходимой суммой он ввязывается в безумные и очень опасные переделки на улицах Лос-Анджелеса. Чем ближе подходит время его расплаты, тем призрачнее оказываются шансы на то, что он сможет сохранить свою жизнь...
Рейтинг MPAA: R - Детям до 17 лет обязательно присутствие родителей
Дата мировой премьеры: 14 октября 2014
Дата российской премьеры: 4 июня 2015, «Top Film Distribution»

Релиз группа: HDClub (Encode by CtrlHD)
Продолжительность: 01:34:34
Качество: BDRip (720p)
Перевод: профессиональный (полное дублирование), авторский (одноголосый закадровый)
Язык субтитров: русский, английский
Вид субтитров: вшитые, отключаемые-Видео: MPEG-4 AVC/H.264, 1280x534 (2,40:1), 4 596 kbps, 23.976 fps, 0.280 b/px
Аудио # 1: АС3, 2 ch, 192 kbps, 48 000 Hz - DUB - «Universal - iTunes»
Аудио # 2: АС3, 6 ch, 448 kbps, 48 000 Hz - DUB - «Top Film Distribution - Megogo»
Аудио # 3: АС3, 6 ch, 640 kbps, 48 000 Hz - AVO - Д.Есарев - без цензуры
Аудио # 4: АС3, 6 ch, 640 kbps, 48 000 Hz - AVO - Д.Есарев
Аудио # 5: АС3, 2 ch, 192 kbps, 48 000 Hz - MVO - Украинский
Аудио # 6: АС3, 6 ch, 640 kbps, 48 000 Hz - Original - English

MediaInfo

Общее
Уникальный идентификатор                 : 191853657608620415622646194474117581011 (0x9055ABA02D75795B8EB3D6511BF148D3)
Полное имя                               : E:\Stretch.2014.720p.BluRay.4xRus.Ukr.Eng.HDCLUB.mkv
Формат                                   : Matroska
Версия формата                           : Version 4 / Version 2
Размер файла                             : 4,95 Гбайт
Продолжительность                        : 1 ч. 34 м.
Общий поток                              : 7497 Кбит/сек
Дата кодирования                         : UTC 2015-09-09 11:59:22
Программа кодирования                    : mkvmerge v6.9.1 ('Blue Panther') 64bit built on Apr 18 2014 18:23:38
Библиотека кодирования                   : libebml v1.3.0 + libmatroska v1.4.1
Attachements                             : Stretch.jpg
Видео
Идентификатор                            : 1
Формат                                   : AVC
Формат/Информация                        : Advanced Video Codec
Профиль формата                          : [url=mailto:[email protected]][email protected][/url]
Параметр CABAC формата                   : Да
Параметр ReFrames формата                : 12 кадров
Идентификатор кодека                     : V_MPEG4/ISO/AVC
Продолжительность                        : 1 ч. 34 м.
Битрейт                                  : 4596 Кбит/сек
Ширина                                   : 1280 пикселей
Высота                                   : 534 пикселя
Соотношение сторон                       : 2,40:1
Соотношение сторон в оригинале           : 2,40:1
Режим частоты кадров                     : Постоянный
Частота кадров                           : 23,976 кадра/сек
Цветовое пространство                    : YUV
Субдискретизация насыщенности            : 4:2:0
Битовая глубина                          : 8 бит
Тип развёртки                            : Прогрессивная
Бит/(Пиксели*Кадры)                      : 0.280
Размер потока                            : 3,04 Гбайт (61%)
Библиотека кодирования                   : x264 core 142 r2431+42 c69a006 tMod [[email protected] X86_64]
Настройки программы                      : cabac=1 / ref=12 / deblock=1:-3:-3 / analyse=0x3:0x133 / me=tesa / subme=11 / psy=1 / fade_compensate=0.00 / psy_rd=1.05:0.00 / mixed_ref=1 / me_range=32 / chroma_me=1 / trellis=2 / 8x8dct=1 / cqm=0 / deadzone=21,11 / fast_pskip=0 / chroma_qp_offset=-2 / threads=6 / lookahead_threads=1 / sliced_threads=0 / nr=0 / decimate=0 / interlaced=0 / bluray_compat=0 / constrained_intra=0 / fgo=0 / bframes=8 / b_pyramid=2 / b_adapt=2 / b_bias=0 / direct=3 / weightb=1 / open_gop=0 / weightp=2 / keyint=250 / keyint_min=23 / scenecut=40 / intra_refresh=0 / rc=crf / mbtree=0 / crf=17.0000 / qcomp=0.60 / qpmin=0:0:0 / qpmax=69:69:69 / qpstep=4 / ip_ratio=1.20 / pb_ratio=1.10 / aq=4:0.95 / aq-sensitivity=10.00 / aq-factor=1.00:1.00:1.00 / aq2=0 / aq3=0
Default                                  : Нет
Forced                                   : Нет
Аудио #1
Идентификатор                            : 2
Формат                                   : AC-3
Формат/Информация                        : Audio Coding 3
Расширение режима                        : CM (complete main)
Параметр Endianness формата              : Big
Идентификатор кодека                     : A_AC3
Продолжительность                        : 1 ч. 34 м.
Вид битрейта                             : Постоянный
Битрейт                                  : 192 Кбит/сек
Каналы                                   : 2 канала
Расположение каналов                     : Front: L R
Частота                                  : 48,0 КГц
Метод сжатия                             : С потерями
Размер потока                            : 130 Мбайт (3%)
Заголовок                                : Dub, Universal
Язык                                     : Russian
Default                                  : Да
Forced                                   : Нет
Аудио #2
Идентификатор                            : 3
Формат                                   : AC-3
Формат/Информация                        : Audio Coding 3
Расширение режима                        : CM (complete main)
Параметр Endianness формата              : Big
Идентификатор кодека                     : A_AC3
Продолжительность                        : 1 ч. 34 м.
Вид битрейта                             : Постоянный
Битрейт                                  : 448 Кбит/сек
Каналы                                   : 6 каналов
Расположение каналов                     : Front: L C R, Side: L R, LFE
Частота                                  : 48,0 КГц
Метод сжатия                             : С потерями
Размер потока                            : 303 Мбайт (6%)
Заголовок                                : Dub, Top Film
Язык                                     : Russian
Default                                  : Нет
Forced                                   : Нет
Аудио #3
Идентификатор                            : 4
Формат                                   : AC-3
Формат/Информация                        : Audio Coding 3
Расширение режима                        : CM (complete main)
Параметр Endianness формата              : Big
Идентификатор кодека                     : A_AC3
Продолжительность                        : 1 ч. 34 м.
Вид битрейта                             : Постоянный
Битрейт                                  : 640 Кбит/сек
Каналы                                   : 6 каналов
Расположение каналов                     : Front: L C R, Side: L R, LFE
Частота                                  : 48,0 КГц
Метод сжатия                             : С потерями
Размер потока                            : 433 Мбайт (9%)
Заголовок                                : AVO, Esarev - Uncensored
Язык                                     : Russian
Default                                  : Нет
Forced                                   : Нет
Аудио #4
Идентификатор                            : 5
Формат                                   : AC-3
Формат/Информация                        : Audio Coding 3
Расширение режима                        : CM (complete main)
Параметр Endianness формата              : Big
Идентификатор кодека                     : A_AC3
Продолжительность                        : 1 ч. 34 м.
Вид битрейта                             : Постоянный
Битрейт                                  : 640 Кбит/сек
Каналы                                   : 6 каналов
Расположение каналов                     : Front: L C R, Side: L R, LFE
Частота                                  : 48,0 КГц
Метод сжатия                             : С потерями
Размер потока                            : 433 Мбайт (9%)
Заголовок                                : AVO, Esarev - Censored
Язык                                     : Russian
Default                                  : Нет
Forced                                   : Нет
Аудио #5
Идентификатор                            : 6
Формат                                   : AC-3
Формат/Информация                        : Audio Coding 3
Профиль формата                          : Dolby Digital
Расширение режима                        : CM (complete main)
Параметр Endianness формата              : Big
Идентификатор кодека                     : A_AC3
Продолжительность                        : 1 ч. 34 м.
Вид битрейта                             : Постоянный
Битрейт                                  : 192 Кбит/сек
Каналы                                   : 2 канала
Расположение каналов                     : Front: L R
Частота                                  : 48,0 КГц
Метод сжатия                             : С потерями
Размер потока                            : 130 Мбайт (3%)
Заголовок                                : MVO
Язык                                     : Ukrainian
Default                                  : Нет
Forced                                   : Нет
Аудио #6
Идентификатор                            : 7
Формат                                   : AC-3
Формат/Информация                        : Audio Coding 3
Расширение режима                        : CM (complete main)
Параметр Endianness формата              : Big
Идентификатор кодека                     : A_AC3
Продолжительность                        : 1 ч. 34 м.
Вид битрейта                             : Постоянный
Битрейт                                  : 640 Кбит/сек
Каналы                                   : 6 каналов
Расположение каналов                     : Front: L C R, Side: L R, LFE
Частота                                  : 48,0 КГц
Метод сжатия                             : С потерями
Размер потока                            : 433 Мбайт (9%)
Заголовок                                : Original
Язык                                     : English
Default                                  : Нет
Forced                                   : Нет
Текст #1
Идентификатор                            : 8
Формат                                   : UTF-8
Идентификатор кодека                     : S_TEXT/UTF8
Идентификатор кодека/Информация          : UTF-8 Plain Text
Заголовок                                : Forced
Язык                                     : Russian
Default                                  : Да
Forced                                   : Нет
Текст #2
Идентификатор                            : 9
Формат                                   : UTF-8
Идентификатор кодека                     : S_TEXT/UTF8
Идентификатор кодека/Информация          : UTF-8 Plain Text
Заголовок                                : Full
Язык                                     : Russian
Default                                  : Нет
Forced                                   : Нет
Текст #3
Идентификатор                            : 10
Формат                                   : UTF-8
Идентификатор кодека                     : S_TEXT/UTF8
Идентификатор кодека/Информация          : UTF-8 Plain Text
Заголовок                                : Full
Язык                                     : English
Default                                  : Нет
Forced                                   : Нет
Текст #4
Идентификатор                            : 11
Формат                                   : UTF-8
Идентификатор кодека                     : S_TEXT/UTF8
Идентификатор кодека/Информация          : UTF-8 Plain Text
Заголовок                                : SDH
Язык                                     : English
Default                                  : Нет
Forced                                   : Нет
Меню
00:00:00.000                             : en:00:00:00.000
00:10:32.090                             : en:00:10:32.090
00:20:39.071                             : en:00:20:39.071
00:30:26.825                             : en:00:30:26.825
00:40:00.273                             : en:00:40:00.273
00:50:01.540                             : en:00:50:01.540
01:00:34.172                             : en:01:00:34.172
01:09:56.567                             : en:01:09:56.567
01:19:25.594                             : en:01:19:25.594
01:28:18.752                             : en:01:28:18.752
Скриншоты:
-Время раздачи: С 09:00 до 23:00 до 5 скачавших
Яндекс.Метрика
Рейтинг@Mail.ru