Цыган + Возвращение Будулая (1979-1985,Драма) SATRip-AVC

 

Создавать темы 09-Сен-2015 08:25

-Цыган + Возвращение Будулая (1979-1985) SATRip-AVC-Информация о фильме
Название: Цыган + Возвращение Будулая
Год выхода: 1979-1985
Жанр: Драма
Режиссер: Александр Бланк-В ролях: Клара Лучко, Михай Волонтир, Алексей Никульников, Ольга Жулина, Нина Русланова, Майя Булгакова, Матлюба Алимова, Леонид Неведомский, Софья Тимофеева, Рудик Овсепян, Ариадна Шенгелая, Иван Рыжов, Михаил Долгинин, Иван Лапиков-О фильме: Цыган: Молодая деревенская женщина, Клавдия Пухлякова, находит у раздавленной танками кибитки цыганского мальчика. Пожалев ребенка, она берет его домой и растит как собственного сына. Проходит 17 лет.
Однажды в селе появляется цыган Будулай, одинокий, много переживший человек. Он очень быстро завоевывает симпатии приемного сына Пухляковой. Подозревая, что Будулай и есть отец ее цыганенка, Клавдия опасается, что покой семьи будет нарушен…
Возвращение Будулая: ...Более полугода не возвращалась память к жестоко избитому бандитами Будулаю. Случайная встреча с сыном Ваней, узнавшим от матери, что его настоящий отец — Будулай, возвращает цыгану память.-Страна: СССР
Продолжительность: 4 х ~ 01:25:18 + 5 x ~ 51:00
Перевод: не требуется
Файл
Кодек: MKV
Качество: SATRip-AVC
Видео: MPEG-4, ~ 2625 Кбит/с, [email protected], [email protected], [email protected]
Звук: AC3, 2 ch, 192 Кбит/с

Скриншоты

Медиа-Инфо

Общее
Уникальный идентификатор : 234114126547622557512686118434890311341 (0xB020BD9CB1B3771FB48107C9619BE6AD)
Полное имя : R:МОИ РИПЫЦыган + Возвращение Будулая_1979-85-SATRip-AVCЦыган_1979-SATRip-AVCЦыган-1.mkv
Формат : Matroska
Версия формата : Version 2
Размер файла : 2,01 Гбайт
Продолжительность : 1 ч. 37 м.
Общий поток : 2944 Кбит/сек
Дата кодирования : UTC 2014-09-25 09:04:24
Программа кодирования : mkvmerge v5.2.0 ('I can't explain') built on Dec 18 2011 18:12:03
Библиотека кодирования : libebml v1.2.3 + libmatroska v1.3.0
Видео
Идентификатор : 1
Формат : AVC
Формат/Информация : Advanced Video Codec
Профиль формата : [email protected]
Параметр CABAC формата : Да
Параметр ReFrames формата : 15 кадров
Идентификатор кодека : V_MPEG4/ISO/AVC
Продолжительность : 1 ч. 37 м.
Битрейт : 2750 Кбит/сек
Ширина : 708 пикселей
Высота : 572 пикселя
Соотношение сторон : 4:3
Соотношение сторон в оригинале : 4:3
Режим частоты кадров : Постоянный
Частота кадров : 25,000 кадров/сек
Цветовое пространство : YUV
Субдискретизация насыщенности : 4:2:0
Битовая глубина : 8 бит
Тип развёртки : Прогрессивная
Бит/(Пиксели*Кадры) : 0.272
Размер потока : 1,84 Гбайт (91%)
Библиотека кодирования : x264 core 142 r2431 ac76440
Настройки программы : cabac=1 / ref=15 / deblock=1:-2:-2 / analyse=0x3:0x133 / me=umh / subme=10 / psy=1 / psy_rd=1.05:0.15 / mixed_ref=1 / me_range=24 / chroma_me=1 / trellis=2 / 8x8dct=1 / cqm=0 / deadzone=21,11 / fast_pskip=0 / chroma_qp_offset=-3 / threads=12 / lookahead_threads=2 / sliced_threads=0 / nr=0 / decimate=0 / interlaced=0 / bluray_compat=0 / constrained_intra=0 / bframes=7 / b_pyramid=2 / b_adapt=2 / b_bias=0 / direct=3 / weightb=1 / open_gop=0 / weightp=2 / keyint=250 / keyint_min=25 / scenecut=40 / intra_refresh=0 / rc=2pass / mbtree=0 / bitrate=2750 / ratetol=1.0 / qcomp=0.65 / qpmin=0 / qpmax=39 / qpstep=4 / cplxblur=20.0 / qblur=0.5 / ip_ratio=1.40 / pb_ratio=1.30 / aq=1:1.00
Язык : English
Default : Да
Forced : Нет
Основные цвета : BT.601 PAL
Характеристики трансфера : BT.470 System B, BT.470 System G
Коэффициенты матрицы : BT.601
Аудио
Идентификатор : 2
Формат : AC-3
Формат/Информация : Audio Coding 3
Расширение режима : CM (complete main)
Параметр Endianness формата : Big
Идентификатор кодека : A_AC3
Продолжительность : 1 ч. 37 м.
Вид битрейта : Постоянный
Битрейт : 192 Кбит/сек
Каналы : 2 канала
Расположение каналов : Front: L R
Частота : 48,0 КГц
Битовая глубина : 16 бит
Метод сжатия : С потерями
Размер потока : 134 Мбайт (7%)
Язык : Russian
Default : Да
Forced : Нет
Общее
Уникальный идентификатор : 252116254049118810497505763506849206164 (0xBDABD3063DECD76CAEB43FF9537E4F94)
Полное имя : R:МОИ РИПЫЦыган + Возвращение Будулая_1979-85-SATRip-AVCВозвращение Будулая_1985-SATRip-AVCВозвращение Будулая-1.mkv
Формат : Matroska
Версия формата : Version 2
Размер файла : 984 Мбайт
Продолжительность : 51 м.
Общий поток : 2694 Кбит/сек
Дата кодирования : UTC 2014-09-26 10:05:07
Программа кодирования : mkvmerge v5.2.0 ('I can't explain') built on Dec 18 2011 18:12:03
Библиотека кодирования : libebml v1.2.3 + libmatroska v1.3.0
Видео
Идентификатор : 1
Формат : AVC
Формат/Информация : Advanced Video Codec
Профиль формата : [email protected]
Параметр CABAC формата : Да
Параметр ReFrames формата : 15 кадров
Идентификатор кодека : V_MPEG4/ISO/AVC
Продолжительность : 51 м.
Битрейт : 2500 Кбит/сек
Ширина : 694 пикселя
Высота : 570 пикселей
Соотношение сторон : 1,298
Соотношение сторон в оригинале : 1,299
Режим частоты кадров : Постоянный
Частота кадров : 25,000 кадров/сек
Цветовое пространство : YUV
Субдискретизация насыщенности : 4:2:0
Битовая глубина : 8 бит
Тип развёртки : Прогрессивная
Бит/(Пиксели*Кадры) : 0.253
Размер потока : 895 Мбайт (91%)
Библиотека кодирования : x264 core 142 r2431 ac76440
Настройки программы : cabac=1 / ref=15 / deblock=1:-2:-2 / analyse=0x3:0x133 / me=umh / subme=10 / psy=1 / psy_rd=1.10:0.15 / mixed_ref=1 / me_range=24 / chroma_me=1 / trellis=2 / 8x8dct=1 / cqm=0 / deadzone=21,11 / fast_pskip=0 / chroma_qp_offset=-3 / threads=12 / lookahead_threads=1 / sliced_threads=0 / nr=0 / decimate=0 / interlaced=0 / bluray_compat=0 / constrained_intra=0 / bframes=6 / b_pyramid=2 / b_adapt=2 / b_bias=0 / direct=3 / weightb=1 / open_gop=0 / weightp=2 / keyint=250 / keyint_min=25 / scenecut=40 / intra_refresh=0 / rc=2pass / mbtree=0 / bitrate=2500 / ratetol=1.0 / qcomp=0.65 / qpmin=0 / qpmax=39 / qpstep=4 / cplxblur=20.0 / qblur=0.5 / ip_ratio=1.40 / pb_ratio=1.30 / aq=1:1.00
Язык : English
Default : Да
Forced : Нет
Основные цвета : BT.601 PAL
Характеристики трансфера : BT.470 System B, BT.470 System G
Коэффициенты матрицы : BT.601
Аудио
Идентификатор : 2
Формат : AC-3
Формат/Информация : Audio Coding 3
Расширение режима : CM (complete main)
Параметр Endianness формата : Big
Идентификатор кодека : A_AC3
Продолжительность : 51 м.
Вид битрейта : Постоянный
Битрейт : 192 Кбит/сек
Каналы : 2 канала
Расположение каналов : Front: L R
Частота : 48,0 КГц
Битовая глубина : 16 бит
Метод сжатия : С потерями
Размер потока : 70,2 Мбайт (7%)
Язык : Russian
Default : Да
Forced : Нет
Яндекс.Метрика
Рейтинг@Mail.ru