Jessie J - Thunder (2013) Master 1080p

 

Создавать темы 07-Сен-2015 23:33

-Jessie J - Thunder (2013) Master 1080p -Информация о Клипе
Исполнитель: Jessie J
Название: Thunder
Год выхода: 2013
Продолжительность: 00:03:31-Файл
Кодек: MPEG4/ISO/AVC/ H.264
Формат: MKV
Качество: Master 1080p
Видео : 1920 x 720 (2.667) at 60.000 fps 21.5 Мбит/сек
Аудио : AC-3 | 128 Кбит/сек | 48.0 KHz | 2.0 channels

MI

Видео
Идентификатор                            : 1
Формат                                   : AVC
Формат/Информация                        : Advanced Video Codec
Профиль формата                          : [email protected]
Параметр CABAC формата                   : Да
Параметр ReFrames формата                : 3 кадра
Параметр GOP формата                     : M=4, N=60
Идентификатор кодека                     : V_MPEG4/ISO/AVC
Продолжительность                        : 3 м. 31 с.
Битрейт                                  : 21,5 Мбит/сек
Ширина                                   : 1920 пикселей
Высота                                   : 720 пикселей
Соотношение сторон                       : 2,667
Режим частоты кадров                     : Постоянный
Частота кадров                           : 60,000 кадров/сек
Стандарт вещания                         : PAL
Цветовое пространство                    : YUV
Субдискретизация насыщенности            : 4:2:0
Битовая глубина                          : 8 бит
Тип развёртки                            : Прогрессивная
Бит/(Пиксели*Кадры)                      : 0.260
Размер потока                            : 542 Мбайт (97%)
Заголовок                                : http://ddgroupclub.ru/
Язык                                     : English
Default                                  : Да
Forced                                   : Нет
Основные цвета                           : BT.709
Характеристики трансфера                 : BT.709
Коэффициенты матрицы                     : BT.709
colour_range                             : Limited
Аудио
Идентификатор                            : 2
Формат                                   : AC-3
Формат/Информация                        : Audio Coding 3
Расширение режима                        : CM (complete main)
Параметр Endianness формата              : Big
Идентификатор кодека                     : A_AC3
Продолжительность                        : 3 м. 31 с.
Вид битрейта                             : Постоянный
Битрейт                                  : 128 Кбит/сек
Каналы                                   : 2 канала
Расположение каналов                     : Front: L R
Частота                                  : 48,0 КГц
Битовая глубина                          : 16 бит
Метод сжатия                             : С потерями
Задержка видео                           : 75 мс.
Размер потока                            : 3,22 Мбайт (1%)
Заголовок                                : AC3
Язык                                     : English
Default                                  : Да
Forced                                   : Нет
DURATION                                 : 00:03:31.017000000
NUMBER_OF_FRAMES                         : 6596
NUMBER_OF_BYTES                          : 3377152
_STATISTICS_WRITING_APP                  : mkvmerge v7.6.0 ('Garden of Dreams') 32bit built on Feb  8 2015 12:51:39
_STATISTICS_WRITING_DATE_UTC             : 2015-08-31 22:14:25
_STATISTICS_TAGS                         : BPS DURATION NUMBER_OF_FRAMES NUMBER_OF_BYTES

Скриншоты:

Яндекс.Метрика
Рейтинг@Mail.ru