Ricky Martin - Más (2011) Master 1080p

 

Создавать темы 07-Сен-2015 23:25

-Ricky Martin - Más (2011) Master 1080p- -Информация о Клипе
Исполнитель: Ricky Martin
Название: Más
Год выхода: 2011
Продолжительность: 00:04:28-Описание:
Премьера видеоклипа на песню "Más" состоялась 28 апреля 2011.
Режиссёром клипа стал Simon Brand.
Клип был снят во время во время мирового тура the Música + Alma + Sexo World Tour в Пуэрто Рико.
-Файл
Кодек: MPEG4/ISO/AVC/ H.264
Формат: MKV
Качество: Master 1080p
Видео : 1920 x 1080 (1.778) at 59.940 fps 28,5 Мбит/сек
Аудио : DTS | 1413 Кбит/сек | 48.0 KHz | 2.0 channels

MI

Видео
Идентификатор                            : 1
Формат                                   : AVC
Формат/Информация                        : Advanced Video Codec
Профиль формата                          : [email protected]
Параметр CABAC формата                   : Да
Параметр ReFrames формата                : 3 кадра
Идентификатор кодека                     : V_MPEG4/ISO/AVC
Продолжительность                        : 4 м. 27 с.
Битрейт                                  : 28,5 Мбит/сек
Ширина                                   : 1920 пикселей
Высота                                   : 1080 пикселей
Соотношение сторон                       : 16:9
Режим частоты кадров                     : Постоянный
Частота кадров                           : 59,880 кадров/сек
Частота кадров в оригинале               : 59,940 кадров/сек
Стандарт вещания                         : PAL
Цветовое пространство                    : YUV
Субдискретизация насыщенности            : 4:2:0
Битовая глубина                          : 8 бит
Тип развёртки                            : Прогрессивная
Бит/(Пиксели*Кадры)                      : 0.230
Размер потока                            : 909 Мбайт (93%)
Заголовок                                : http://ddgroupclub.ru/
Язык                                     : English
Default                                  : Да
Forced                                   : Нет
Основные цвета                           : BT.709
Характеристики трансфера                 : BT.709
Коэффициенты матрицы                     : BT.709
colour_range                             : Limited
Аудио
Идентификатор                            : 2
Формат                                   : DTS
Формат/Информация                        : Digital Theater Systems
Режим                                    : 16
Параметр Endianness формата              : Big
Идентификатор кодека                     : A_DTS
Продолжительность                        : 4 м. 27 с.
Вид битрейта                             : Постоянный
Битрейт                                  : 1413 Кбит/сек
Каналы                                   : 2 канала
Расположение каналов                     : Front: L R
Частота                                  : 48,0 КГц
Битовая глубина                          : 16 бит
Метод сжатия                             : С потерями
Размер потока                            : 45,1 Мбайт (5%)
Заголовок                                : DTS
Язык                                     : English
Default                                  : Да
Forced                                   : Нет
DURATION                                 : 00:04:27.691000000
NUMBER_OF_FRAMES                         : 25096
NUMBER_OF_BYTES                          : 47280864
_STATISTICS_WRITING_APP                  : mkvmerge v7.6.0 ('Garden of Dreams') 32bit built on Feb  8 2015 12:51:39
_STATISTICS_WRITING_DATE_UTC             : 2015-09-01 22:39:22
_STATISTICS_TAGS                         : BPS DURATION NUMBER_OF_FRAMES NUMBER_OF_BYTES

Скриншоты:

Создавать темы 12-Окт-2016 23:19 (спустя 1 год 1 месяц)

seed please

Создавать темы 13-Окт-2016 20:25 (спустя 21 час)

Seed please !
Яндекс.Метрика
Рейтинг@Mail.ru