[ Сегодня на трекере фрилич! Идет свободное скачивание без начисления Download ]

Фрост против Никсона / Frost/Nixon (Рон Ховард / Ron Howard) [2008 г., драма, история, HDRip] Dub

 

Создавать темы 07-Сен-2015 17:11

Фрост против Никсона - Frost / Nixon Год выпуска: 2008
Страна: США, Франция, Великобритания
Жанр: драма, история
Продолжительность: 01:56:51
Перевод: Профессиональный полное дублирование
Cубтитры: нет
Премьера (мир): 15 октября 2008, ...
Премьера (РФ): 5 февраля 2009, «UPI»
Релиз на DVD: 19 мая 2009, «Юниверсал Пикчерс Рус», ...
Режиссёр: Рон Ховард / Ron Howard
В ролях: Майкл Шин, Фрэнк Ланджелла, Сэм Рокуэлл, Кевин Бэйкон, Ребекка Холл, Оливер Платт, Тоби Джонс, Мэттью Макфэдьен, Кейт Дженнингс Грант, Джеффри Гулд, Нед Вон, Уильям М. Коннор, Клинт Ховард, Кристина Хьюз, Гэбриэл Джэррет, Дэвид Келси, Джон Керри, Симона Кесселл, Лиза Ли, Пэтти МакКормак, Джим Мескимен, Энди Майлдер, Джин Митчелл, Макс Эллиотт Слэйд, Джеффри Блейк, Рэнс Ховард, Гэвин Грейзер, Элой Касадос, Джей Уайт, Уил Альберт, Кит МакКечни, Пенни Л. Мур, Джанник Арент, Дэвид Патерсон, Дженнифер Хэнли, Роберт Пасториза, Луи Мейя, Кевин П. Кернс, Дэвид Келсли, Джеймс Ритц, Пит Роквэлл, Нед Вон, Симона Кэссел, Бен Поли, Ной Крафт, Талли Сингер, Чарлстон Кейн Беннетт, Грегори Элперт, Кимберли Робин, Мишель Менхарт, Стив Кехела
Описание: США, 1977 год. Спустя три года после своей бесславной отставки, последовавшей после Уотергейтского скандала, экс-президент США Ричард Никсон нарушил молчание и дал эксклюзивное интервью британскому телеведущему Дэвиду Фросту. Но исповедь одиозного политика, на которую все рассчитывали, внезапно вылилась в захватывающую интеллектуальную баталию, вошедшую в золотые анналы американской тележурналистики.
Одноименная пьеса английского драматурга и киносценариста Питера Моргана, основанная на тексте реальных интервью Ричарда Никсона.
* До того, как Рон Ховард был выбран режиссером фильма, проектом интересовались Мартин Скорсезе, Майк Николс, Джордж Клуни, Сэм Мендес и Беннетт Миллер.
* Рон Ховард согласился стать режиссером только при условии, что исполнять главные роли будут участники бродвейской постановки 2007 года.
* За роль Никсона в оригинальном спектакле в 2007 году Фрэнк Ладжелла был удостоен театральной премии «Тони».
* Рон Ховард признался, что в 1972 году голосовал за Никсона.
* Оба исполнителя главных ролей - Майкл Шин и Фрэнк Ланджелла - воплотили в картине образы, которые ранее создали на сцене.
* За пределами съёмочной площадки актеры не выходили из своего образа и продолжали противостояние Фрост/Никсон, постоянно препираясь и высмеивая друг друга. Даже обращаясь к Фрэнку Ланджелле или просто упоминая его, все члены актерской и съёмочной команды, употребляли «мистер Президент».
* Когда Фрост уговаривает одного из студийных боссов купить его интервью, на заднем плане видно плакат M*A*S*H.
* В 1977-м, когда Никсон дал знаменитое интервью Фросту, Рон Ховард дебютировал как режиссер комедией «Большое автоограбление».

Качество видео: HDRip
Формат видео: AVI
Видео кодек: XviD
Аудио кодек: АС3
Видео: XviD, 282 Kbps, 704х288, 2.40:1, 25.000 fps, 8 bits, 0.253 Bits/Pixel
Аудио: АС3, 384 Kbps, 6 channels, Front: L C R, Side: L R, LFE, 48.0 KHz

Медиаинфо

General
Complete name : Фрост против Никсона.avi
Format : AVI
Format/Info : Audio Video Interleave
File size : 1.37 GiB
Duration : 1h 56mn
Overall bit rate : 1 676 Kbps
Movie name : Frost/Nixon (2008)
Writing application : VirtualDubMod 1.5.10.2 (build 2540/release)
Video
ID : 0
Format : MPEG-4 Visual
Format profile : Advanced [email protected]
Format settings, BVOP : 3
Format settings, QPel : No
Format settings, GMC : No warppoints
Format settings, Matrix : Default (H.263)
Codec ID : XVID
Codec ID/Hint : XviD
Duration : 1h 56mn
Bit rate : 1 282 Kbps
Width : 704 pixels
Height : 288 pixels
Display aspect ratio : 2.40:1
Frame rate : 25.000 fps
Color space : YUV
Chroma subsampling : 4:2:0
Bit depth : 8 bits
Scan type : Progressive
Compression mode : Lossy
Bits/(Pixel*Frame) : 0.253
Stream size : 1.05 GiB (77%)
Writing library : XviD 1.2.0.dev47 (UTC 2006-11-01)
Audio
ID : 1
Format : AC-3
Format/Info : Audio Coding 3
Mode extension : CM (complete main)
Format settings, Endianness : Big
Codec ID : 2000
Duration : 1h 56mn
Bit rate mode : Constant
Bit rate : 384 Kbps
Channel(s) : 6 channels
Channel positions : Front: L C R, Side: L R, LFE
Sampling rate : 48.0 KHz
Compression mode : Lossy
Stream size : 321 MiB (23%)
Alignment : Split accross interleaves
Interleave, duration : 40 ms (1.00 video frame)
Interleave, preload duratio : 500 ms

Скриншоты

Награды

Оскар, 2009 год Номинации (5):
Лучший фильм
Лучшая мужская роль (Фрэнк Ланджелла)
Лучший режиссер (Рон Ховард)
Лучший адаптированный сценарий
Лучший монтаж
Золотой глобус, 2009 год Номинации (5):
Лучший фильм (драма)
Лучшая мужская роль (драма) (Фрэнк Ланджелла)
Лучший режиссер (Рон Ховард)
Лучший сценарий
Лучший саундтрек
Британская академия, 2009 год Номинации (6):
Лучший фильм
Лучшая мужская роль (Фрэнк Ланджелла)
Лучший режиссер (Рон Ховард)
Лучший адаптированный сценарий
Лучший монтаж
Лучший грим/прически
Премия Гильдии актеров, 2009 год Номинации (2):
Лучший актерский состав
Лучшая мужская роль (Фрэнк Ланджелла)
Яндекс.Метрика
Рейтинг@Mail.ru