[ Сегодня на трекере фрилич! Идет свободное скачивание без начисления Download ]

Турбо пацан / Turbo Kid (2015) WEB-DL [H.264/720p-LQ]

 

Создавать темы 04-Сен-2015 20:58

-Турбо пацан / Turbo Kid (2015) WEB-DL [H.264/720p-LQ]«Coming Soon To a Wasteland Near You!»- Производство: Канада, Новая Зеландия, EMA Films, Epic Pictures Group, Timpson Films
Жанр: Фантастика, Боевик
Режиссер: Франсуа Симар
Продюсер: Бенуа Больё, Энн-Мари Желина, Тим Райли
Актеры: Манро Чэмберс, Лоранс Лебёф, Майкл Айронсайд, Эдвин Райт, Аарон Джеффри, Романо Орзари
Описание:
Примерив костюм своего любимого героя комиксов, парнишка должен спасти новую странноватую подружку и положить конец правлению безумного тирана на просторах пост-апокалиптической пустоши.


Дата мировой премьеры: 26 января 2015
Продолжительность: 01:32:45
Качество видео: WEB-DL [H.264/720p-LQ]
Перевод: Любительский (двуголосый, закадровый) (Мтрск/StacyLagler)
Субтитры: Отсутствуют
Примечание: В переводе присутствует ненормативная лексика!
Видео: MPEG-4 AVC/H.264, 3953 Кбит/с, 1280x532
Аудио: AC3, 192 kb/s (2 ch) - Русский
Аудио: AC3, 384 kb/s (6 ch) - Английский

Mediainfo:

General
Unique ID : 203077019566202598851495565217295363490 (0x98C73617C0D6A6F58FF2439AB919EDA2)
Complete name : Turbo Kid WEB DL 720p.2015.L2.mkv
Format : Matroska
Format version : Version 4 / Version 2
File size : 2.99 GiB
Duration : 1h 32mn
Overall bit rate : 4 621 Kbps
Encoded date : UTC 2015-09-02 09:51:16
Writing application : mkvmerge v6.1.0 ('Old Devil') built on Mar 4 2013 09:10:42
Writing library : libebml v1.3.0 + libmatroska v1.4.0
Video
ID : 1
Format : AVC
Format/Info : Advanced Video Codec
Format profile : [url=mailto:[email protected]][email protected][/url]
Format settings, CABAC : No
Format settings, ReFrames : 2 frames
Codec ID : V_MPEG4/ISO/AVC
Duration : 1h 32mn
Bit rate : 3 953 Kbps
Width : 1 280 pixels
Height : 532 pixels
Display aspect ratio : 2.40:1
Frame rate mode : Constant
Frame rate : 23.976 fps
Color space : YUV
Chroma subsampling : 4:2:0
Bit depth : 8 bits
Scan type : Progressive
Bits/(Pixel*Frame) : 0.242
Stream size : 2.56 GiB (86%)
Language : English
Default : Yes
Forced : No
Color primaries : BT.709
Transfer characteristics : BT.709
Matrix coefficients : BT.709
Audio #1
ID : 2
Format : AC-3
Format/Info : Audio Coding 3
Mode extension : CM (complete main)
Format settings, Endianness : Big
Codec ID : A_AC3
Duration : 1h 32mn
Bit rate mode : Constant
Bit rate : 192 Kbps
Channel count : 2 channels
Channel positions : Front: L R
Sampling rate : 48.0 KHz
Bit depth : 16 bits
Compression mode : Lossy
Stream size : 127 MiB (4%)
Language : Russian
Default : Yes
Forced : No
Audio #2
ID : 3
Format : AC-3
Format/Info : Audio Coding 3
Mode extension : CM (complete main)
Format settings, Endianness : Big
Codec ID : A_AC3
Duration : 1h 32mn
Bit rate mode : Constant
Bit rate : 384 Kbps
Channel count : 6 channels
Channel positions : Front: L C R, Side: L R, LFE
Sampling rate : 48.0 KHz
Bit depth : 16 bits
Compression mode : Lossy
Stream size : 255 MiB (8%)
Language : English
Default : No
Forced : No
Menu
00:00:00.000 : en:Chapter 01
00:09:39.000 : en:Chapter 02
00:20:17.000 : en:Chapter 03
00:30:39.000 : en:Chapter 04
00:41:01.000 : en:Chapter 05
00:56:22.000 : en:Chapter 06
01:09:09.000 : en:Chapter 07
01:20:01.000 : en:Chapter 08
01:28:10.000 : en:End Credits
Скриншоты:
Время раздачи: 24/7
Яндекс.Метрика
Рейтинг@Mail.ru