[ Сегодня на трекере фрилич! Идет свободное скачивание без начисления Download ]

Факап, или Хуже не бывает / Not My Day / Nicht mein Tag (2014) BDRip [H.264/720p]

 

Создавать темы 03-Сен-2015 15:27

-Факап, или Хуже не бывает / Not My Day / Nicht mein Tag (2014) BDRip [H.264/720p]- Производство: Германия / Deutsche Columbia Pictures Film Produktion, Donar Film, Mr. Brown Entertainment
Жанр: боевик, комедия, криминал, приключения
Режиссер: Петер Торварт
Продюсер: Кристиан Бекер, Маркус Мачура, Тиль Швайгер
Актеры: Мориц Бляйбтрой, Аксель Штайн, Жасмин Герат, Анна Мария Мюэ, Неля Кипер, Бен Рюдингер, Касэм Ходжа, Беким Гури, Тобиас Нид, Максвелл Рихтер, Юрген Риссманн, Александр Колл, Мартина Эйтнер, Кристиан Таше, Гизем Эмре, Питер Сарач, Торстен Дохле, Уолли Дёзе, Бьорн Клут, Эмилиан Маркграф, Керстин Крамер, Ян ван Вейде, Даниэль Илигэнс, Марвин Линке, Томас Балу Мартин, Фабриция Пркацин, Петер Клоппель, Бьорн Хебель, Волкер Музмэнн, Даниэль Хермес, Маркус Мачура
Описание:
Тиль Райнер — банковский клерк 30-ти лет. Каждый новый день его жизни похож на предыдущий. Отношения с супругой больше напоминают привычку. Но неожиданно происходит то, что позволяет выбраться ему из повседневной рутины. Тиля захватывает в заложники грабитель банка, в котором наш герой узнает заявителя по кредиту — Наппо.
Полиция разрабатывает план перехват, устанавливает блокпосты, поэтому Наппо решает спрятать заложника в багажник и исчезнуть с награбленным! Но все идет не по плану и Наппо скрывается вместе с Тиллем! После того как шок от случившегося немного проходит, Тиль забывает про какое-либо благоразумие и погружается с головой в приключения вместе со своим похитителем…

Дата мировой премьеры: 16 января 2014
Дата российской премьеры: 14 мая 2015, «Люксор»
Продолжительность: 01:50:17
Качество: BDRip 720p
Перевод: Дублированный (Лицензия BD RUS)
Вид субтитров: вшитые, отключаемые
Язык субтитров: Русский, Английский
Видео: MPEG-4 AVC/H.264, 6158 Кбит/с, 1280x544
Аудио # 1: Русский - AC3, 6 ch, 640 Кбит/с
Аудио # 2: Русский - DTS, 6 ch, 1510 Кбит/с
Аудио # 3: Немецкий - DTS, 6 ch, 1510 Кбит/с

MediaInfo

Общее
Уникальный идентификатор                 : 195911974739807498191702692251148586269 (0x9363461BCA434040A21555C3D5FD8D1D)
Полное имя                               : C:\Nicht.mein.Tag.2014.BDRip.720p.mkv
Формат                                   : Matroska
Версия формата                           : Version 2
Размер файла                             : 7,72 Гбайт
Продолжительность                        : 1 ч. 50 м.
Общий поток                              : 10,0 Мбит/сек
Название фильма                          : Факап, или Хуже не бывает / Nicht mein Tag (2014)
Дата кодирования                         : UTC 2015-09-02 19:41:47
Программа кодирования                    : mkvmerge v7.9.0 ('Birds') 64bit
Библиотека кодирования                   : libebml v1.3.1 + libmatroska v1.4.2
Attachements                             : cover.jpg
Видео
Идентификатор                            : 1
Формат                                   : AVC
Формат/Информация                        : Advanced Video Codec
Профиль формата                          : [url=mailto:[email protected]][email protected][/url]
Параметр CABAC формата                   : Да
Параметр ReFrames формата                : 10 кадров
Идентификатор кодека                     : V_MPEG4/ISO/AVC
Продолжительность                        : 1 ч. 50 м.
Битрейт                                  : 6158 Кбит/сек
Ширина                                   : 1280 пикселей
Высота                                   : 544 пикселя
Соотношение сторон                       : 2,35:1
Режим частоты кадров                     : Постоянный
Частота кадров                           : 25,000 кадров/сек
Цветовое пространство                    : YUV
Субдискретизация насыщенности            : 4:2:0
Битовая глубина                          : 8 бит
Тип развёртки                            : Прогрессивная
Бит/(Пиксели*Кадры)                      : 0.354
Размер потока                            : 4,75 Гбайт (61%)
Заголовок                                : Nicht Mein Tag (2014)
Библиотека кодирования                   : x264 core 144 r2525kMod 40bb568
Настройки программы                      : cabac=1 / ref=10 / deblock=1:-3:-3 / analyse=0x3:0x133 / me=umh / subme=10 / psy=1 / fade_compensate=0.00 / psy_rd=1.05:0.00 / mixed_ref=1 / me_range=24 / chroma_me=1 / trellis=2 / 8x8dct=1 / cqm=0 / deadzone=21,11 / fast_pskip=0 / chroma_qp_offset=-2 / threads=12 / lookahead_threads=2 / sliced_threads=0 / nr=0 / decimate=0 / interlaced=0 / bluray_compat=0 / constrained_intra=0 / fgo=0 / bframes=8 / b_pyramid=2 / b_adapt=2 / b_bias=0 / direct=3 / weightb=1 / open_gop=0 / weightp=2 / keyint=240 / keyint_min=23 / scenecut=40 / intra_refresh=0 / rc_lookahead=60 / rc=crf / mbtree=0 / crf=16.0000 / qcomp=0.60 / qpmin=0 / qpmax=69 / qpstep=4 / vbv_maxrate=62500 / vbv_bufsize=78125 / crf_max=0.0 / nal_hrd=none / filler=0 / ip_ratio=1.30 / pb_ratio=1.20 / aq=3:0.80
Язык                                     : German
Default                                  : Да
Forced                                   : Нет
Аудио #1
Идентификатор                            : 2
Формат                                   : AC-3
Формат/Информация                        : Audio Coding 3
Расширение режима                        : CM (complete main)
Параметр Endianness формата              : Big
Идентификатор кодека                     : A_AC3
Продолжительность                        : 1 ч. 50 м.
Вид битрейта                             : Постоянный
Битрейт                                  : 640 Кбит/сек
Каналы                                   : 6 каналов
Расположение каналов                     : Front: L C R, Side: L R, LFE
Частота                                  : 48,0 КГц
Метод сжатия                             : С потерями
Размер потока                            : 505 Мбайт (6%)
Язык                                     : Russian
Default                                  : Да
Forced                                   : Нет
Аудио #2
Идентификатор                            : 3
Формат                                   : DTS
Формат/Информация                        : Digital Theater Systems
Режим                                    : 16
Параметр Endianness формата              : Big
Идентификатор кодека                     : A_DTS
Продолжительность                        : 1 ч. 50 м.
Вид битрейта                             : Постоянный
Битрейт                                  : 1509 Кбит/сек
Каналы                                   : 6 каналов
Расположение каналов                     : Front: L C R, Side: L R, LFE
Частота                                  : 48,0 КГц
Битовая глубина                          : 24 бит
Метод сжатия                             : С потерями
Размер потока                            : 1,16 Гбайт (15%)
Язык                                     : Russian
Default                                  : Нет
Forced                                   : Нет
Аудио #3
Идентификатор                            : 4
Формат                                   : DTS
Формат/Информация                        : Digital Theater Systems
Режим                                    : 16
Параметр Endianness формата              : Big
Идентификатор кодека                     : A_DTS
Продолжительность                        : 1 ч. 50 м.
Вид битрейта                             : Постоянный
Битрейт                                  : 1509 Кбит/сек
Каналы                                   : 6 каналов
Расположение каналов                     : Front: L C R, Side: L R, LFE
Частота                                  : 48,0 КГц
Битовая глубина                          : 24 бит
Метод сжатия                             : С потерями
Размер потока                            : 1,16 Гбайт (15%)
Язык                                     : German
Default                                  : Нет
Forced                                   : Нет
Текст #1
Идентификатор                            : 5
Формат                                   : UTF-8
Идентификатор кодека                     : S_TEXT/UTF8
Идентификатор кодека/Информация          : UTF-8 Plain Text
Язык                                     : Russian
Default                                  : Нет
Forced                                   : Нет
Текст #2
Идентификатор                            : 6
Формат                                   : UTF-8
Идентификатор кодека                     : S_TEXT/UTF8
Идентификатор кодека/Информация          : UTF-8 Plain Text
Язык                                     : English
Default                                  : Нет
Forced                                   : Нет
Меню
00:00:00.000                             : de:00:00:00.000
00:07:21.360                             : de:00:07:21.360
00:15:47.040                             : de:00:15:47.040
00:22:52.600                             : de:00:22:52.600
00:30:56.040                             : de:00:30:56.040
00:37:25.960                             : de:00:37:25.960
00:45:21.840                             : de:00:45:21.840
00:52:59.000                             : de:00:52:59.000
01:01:33.640                             : de:01:01:33.640
01:09:28.440                             : de:01:09:28.440
01:15:51.920                             : de:01:15:51.920
01:23:02.120                             : de:01:23:02.120
01:31:39.560                             : de:01:31:39.560
01:37:32.320                             : de:01:37:32.320
01:44:16.800                             : de:01:44:16.800
01:46:06.680                             : de:01:46:06.680
Скриншоты:
Время раздачи: 24/7
Яндекс.Метрика
Рейтинг@Mail.ru