В поисках сокровищ нибелунгов / Die Jagd nach dem Schatz der Nibelungen (Ральф Хюттнер / Ralf Huettner) [2008, Германия, боевик, детектив, приключения, DVDRip] MVO (т/к TV XXI) + Original Ger

 

Создавать темы 02-Сен-2015 08:27

В поисках сокровищ нибелунгов / Die Jagd nach dem Schatz der Nibelungen- Год выпуска: 2008
Страна: Германия
Жанр: боевик, детектив, приключения
Продолжительность: 01:57:39
Перевод: Профессиональный (многоголосый закадровый) т/к TV XXI
Cубтитры: нет
Оригинальная аудиодорожка: немецкий
Режисер: Ральф Хюттнер / Ralf Huettner
В ролях: Беньямин Задлер, Беттина Циммерманн, Харк Бом, Штефан Кампвирт, Лив Лиза Фрис, Милена Драйсиг, Детлеф Боте, Фабиан Буш, Фолькер Хаймсат, Томас Дархингер, Майя Бекманн-Описание:
Местонахождение легендарных сокровищ нибелунгов — одна из самых интригующих загадок современности. Решить ее берется очередной одержимый археолог, которому не дают покоя лавры Индианы Джонса. Получив сомнительную информацию из недостоверных источников, он втягивает в водоворот опасных и невероятных приключений себя, свою жену и своего лучшего друга.-Качество: DVDRip
Контейнер: AVI
Видео: 720x400 (1.80:1), 25 fps, XviD MPEG-4 ~1742 kbps avg, 0.24 bit/pixel
Аудио 1: 48 kHz, AC3 Dolby Digital, 6 ch, ~448.00 kbps avg
Аудио 2: 48 kHz, AC3 Dolby Digital, 6 ch, ~448.00 kbps avg [Ger]-

MediaInfo

В поисках сокровищ нибелунгов - Die Jagd nach dem Schatz der Nibelungen (2008) DVDRip.avi
Format : AVI
Format/Info : Audio Video Interleave
Format profile : OpenDML
Format settings : rec
File size : 2.17 GiB
Duration : 1h 57mn
Overall bit rate : 2 646 Kbps
Writing application : AVI-Mux GUI 1.17.8.3, Feb 16 201019:42:50
Video
ID : 0
Format : MPEG-4 Visual
Format profile : Advanced [email protected]
Format settings, BVOP : No
Format settings, QPel : No
Format settings, GMC : No warppoints
Format settings, Matrix : Default (H.263)
Codec ID : XVID
Codec ID/Hint : XviD
Duration : 1h 57mn
Bit rate : 1 742 Kbps
Width : 720 pixels
Height : 400 pixels
Display aspect ratio : 16:9
Frame rate : 25.000 fps
Color space : YUV
Chroma subsampling : 4:2:0
Bit depth : 8 bits
Scan type : Progressive
Compression mode : Lossy
Bits/(Pixel*Frame) : 0.242
Stream size : 1.43 GiB (66%)
Writing library : XviD 62
Audio #1
ID : 1
Format : AC-3
Format/Info : Audio Coding 3
Mode extension : CM (complete main)
Format settings, Endianness : Big
Codec ID : 2000
Duration : 1h 57mn
Bit rate mode : Constant
Bit rate : 448 Kbps
Channel(s) : 6 channels
Channel positions : Front: L C R, Side: L R, LFE
Sampling rate : 48.0 KHz
Bit depth : 16 bits
Compression mode : Lossy
Stream size : 377 MiB (17%)
Alignment : Aligned on interleaves
Interleave, duration : 64 ms (1.60 video frames)
Interleave, preload duration : 192 ms
Title : (Rus)
Audio #2
ID : 2
Format : AC-3
Format/Info : Audio Coding 3
Mode extension : CM (complete main)
Format settings, Endianness : Big
Codec ID : 2000
Duration : 1h 57mn
Bit rate mode : Constant
Bit rate : 448 Kbps
Channel(s) : 6 channels
Channel positions : Front: L C R, Side: L R, LFE
Sampling rate : 48.0 KHz
Bit depth : 16 bits
Compression mode : Lossy
Stream size : 377 MiB (17%)
Alignment : Aligned on interleaves
Interleave, duration : 64 ms (1.60 video frames)
Interleave, preload duration : 192 ms
Title : Ger
-Скриншоты--Время раздачи: 24/7 (круглосуточно)
Яндекс.Метрика
Рейтинг@Mail.ru