Madonna - Bitch I'm Madonna ft. Nicki Minaj (2015) Master 1080p | 60 fps

 

Создавать темы 31-Авг-2015 11:40

-Madonna - Bitch I'm Madonna ft. Nicki Minaj (2015) Master 1080p | 60 fps- -Информация о Клипе
Исполнитель: Madonna
Название: Bitch I'm Madonna ft. Nicki Minaj
Год выхода: 2015
Продолжительность: 00:04:3-Файл
Кодек: MPEG4/ISO/AVC/ H.264
Формат: MKV
Качество: Master 1080p
Видео : 1920 x 1080 (1.778) at 59.940 fps 29.4 Мбит/сек
Аудио 1: AC-3 | 640 Кбит/сек | 48.0 KHz | 2.0 channels
Аудио 2: DTS | 1413 Кбит/сек | 48.0 KHz | 2.0 channels

MI

Видео
Идентификатор                            : 1
Формат                                   : AVC
Формат/Информация                        : Advanced Video Codec
Профиль формата                          : [email protected]
Параметр CABAC формата                   : Да
Параметр ReFrames формата                : 3 кадра
Параметр GOP формата                     : M=4, N=59
Идентификатор кодека                     : V_MPEG4/ISO/AVC
Продолжительность                        : 4 м. 2 с.
Битрейт                                  : 29,4 Мбит/сек
Ширина                                   : 1920 пикселей
Высота                                   : 1080 пикселей
Соотношение сторон                       : 16:9
Режим частоты кадров                     : Постоянный
Частота кадров                           : 59,880 кадров/сек
Частота кадров в оригинале               : 59,940 кадров/сек
Стандарт вещания                         : PAL
Цветовое пространство                    : YUV
Субдискретизация насыщенности            : 4:2:0
Битовая глубина                          : 8 бит
Тип развёртки                            : Прогрессивная
Бит/(Пиксели*Кадры)                      : 0.236
Размер потока                            : 850 Мбайт (92%)
Заголовок                                : www.60-fps.org
Язык                                     : English
Default                                  : Да
Forced                                   : Нет
Основные цвета                           : BT.709
Характеристики трансфера                 : BT.709
Коэффициенты матрицы                     : BT.709
colour_range                             : Limited
Аудио #1
Идентификатор                            : 2
Формат                                   : AC-3
Формат/Информация                        : Audio Coding 3
Расширение режима                        : CM (complete main)
Параметр Endianness формата              : Big
Идентификатор кодека                     : A_AC3
Продолжительность                        : 4 м. 2 с.
Вид битрейта                             : Постоянный
Битрейт                                  : 640 Кбит/сек
Каналы                                   : 2 канала
Расположение каналов                     : Front: L R
Частота                                  : 48,0 КГц
Битовая глубина                          : 16 бит
Метод сжатия                             : С потерями
Размер потока                            : 18,5 Мбайт (2%)
Заголовок                                : AC3
Язык                                     : English
Default                                  : Нет
Forced                                   : Да
DURATION                                 : 00:04:02.795000000
NUMBER_OF_FRAMES                         : 22762
NUMBER_OF_BYTES                          : 42883608
_STATISTICS_WRITING_APP                  : mkvmerge v7.6.0 ('Garden of Dreams') 32bit built on Feb  8 2015 12:51:39
_STATISTICS_WRITING_DATE_UTC             : 2015-08-23 09:46:36
_STATISTICS_TAGS                         : BPS DURATION NUMBER_OF_FRAMES NUMBER_OF_BYTES
Аудио #2
Идентификатор                            : 3
Формат                                   : DTS
Формат/Информация                        : Digital Theater Systems
Режим                                    : 16
Параметр Endianness формата              : Big
Идентификатор кодека                     : A_DTS
Продолжительность                        : 4 м. 2 с.
Вид битрейта                             : Постоянный
Битрейт                                  : 1413 Кбит/сек
Каналы                                   : 2 канала
Расположение каналов                     : Front: L R
Частота                                  : 48,0 КГц
Битовая глубина                          : 16 бит
Метод сжатия                             : С потерями
Задержка видео                           : 83 мс.
Размер потока                            : 40,9 Мбайт (4%)
Заголовок                                : DTS
Язык                                     : English
Default                                  : Да
Forced                                   : Нет

Скриншоты:

Яндекс.Метрика
Рейтинг@Mail.ru