One Direction - Drag Me Down (2015) WEBRip 1080p | 60 fps

 

Создавать темы 31-Авг-2015 11:39

--One Direction - Drag Me Down (2015) WEBRip 1080p | 60 fps --Информация о Клипе
Исполнитель: One Direction
Название: Drag Me Down
Год выхода: 2015
Продолжительность: 00:03:11-Файл
Кодек: MPEG4/ISO/AVC/ H.264
Формат: MKV
Качество: WEBRip 1080p
Видео: 1920 x 780 (2.462) at 59.940 fps ~5.0 Мбит/сек
Аудио: MP3 | 320 Кбит/сек | 44.1 KHz | 2 channels | 16 bits

MediaInfo

Видео
Идентификатор                            : 1
Формат                                   : AVC
Формат/Информация                        : Advanced Video Codec
Профиль формата                          : [email protected]
Параметр CABAC формата                   : Да
Параметр ReFrames формата                : 3 кадра
Параметр GOP формата                     : M=4, N=59
Идентификатор кодека                     : V_MPEG4/ISO/AVC
Продолжительность                        : 3 м. 11 с.
Битрейт                                  : 4893 Кбит/сек
Ширина                                   : 1920 пикселей
Высота                                   : 780 пикселей
Соотношение сторон                       : 2,462
Режим частоты кадров                     : Постоянный
Частота кадров                           : 59,880 кадров/сек
Частота кадров в оригинале               : 59,940 кадров/сек
Стандарт вещания                         : PAL
Цветовое пространство                    : YUV
Субдискретизация насыщенности            : 4:2:0
Битовая глубина                          : 8 бит
Тип развёртки                            : Прогрессивная
Бит/(Пиксели*Кадры)                      : 0.055
Размер потока                            : 112 Мбайт (92%)
Заголовок                                : www.60-fps.org
Язык                                     : English
Default                                  : Да
Forced                                   : Нет
Основные цвета                           : BT.709
Характеристики трансфера                 : BT.709
Коэффициенты матрицы                     : BT.709
colour_range                             : Limited
Аудио
Идентификатор                            : 2
Формат                                   : MPEG Audio
Версия формата                           : Version 1
Профиль формата                          : Layer 3
Режим                                    : Joint stereo
Идентификатор кодека                     : A_MPEG/L3
Идентификатор кодека/Подсказка           : MP3
Продолжительность                        : 3 м. 11 с.
Вид битрейта                             : Постоянный
Битрейт                                  : 320 Кбит/сек
Каналы                                   : 2 канала
Частота                                  : 44,1 КГц
Метод сжатия                             : С потерями
Размер потока                            : 7,31 Мбайт (6%)
Заголовок                                : MP3
Библиотека кодирования                   : LAME3.99.5
Default                                  : Да
Forced                                   : Нет

Скриншоты:

Яндекс.Метрика
Рейтинг@Mail.ru