[ Сегодня на трекере фрилич! Идет свободное скачивание без начисления Download ]

Molly - Holy Molly (2015) WEBRip 720p | 60 fps

 

Создавать темы 31-Авг-2015 11:31

--Molly - Holy Molly (2015) WEBRip 720p | 60 fps --Информация о Клипе
Исполнитель: Molly
Название: Holy Molly
Год выхода: 2015
Продолжительность: 00:04:12-Файл
Кодек: MPEG4/ISO/AVC/ H.264
Формат: MKV
Качество: WEBRip 720p
Видео: 1280 x 534 (2.397) at 60.000 fps ~5.8 Мбит/сек
Аудио: MP3 | 320 Кбит/сек | 44.1 KHz | 2 channels | 16 bits

MediaInfo

Видео
Идентификатор                            : 1
Формат                                   : AVC
Формат/Информация                        : Advanced Video Codec
Профиль формата                          : [email protected]
Параметр CABAC формата                   : Да
Параметр ReFrames формата                : 3 кадра
Идентификатор кодека                     : V_MPEG4/ISO/AVC
Продолжительность                        : 4 м. 12 с.
Вид битрейта                             : Переменный
Битрейт                                  : 5866 Кбит/сек
Максимальный битрейт                     : 6000 Кбит/сек
Ширина                                   : 1280 пикселей
Высота                                   : 534 пикселя
Соотношение сторон                       : 2,40:1
Режим частоты кадров                     : Постоянный
Частота кадров                           : 60,000 кадров/сек
Стандарт вещания                         : PAL
Цветовое пространство                    : YUV
Субдискретизация насыщенности            : 4:2:0
Битовая глубина                          : 8 бит
Тип развёртки                            : Прогрессивная
Бит/(Пиксели*Кадры)                      : 0.143
Размер потока                            : 177 Мбайт (93%)
Заголовок                                : www.60-fps.org
Язык                                     : English
Default                                  : Да
Forced                                   : Нет
Основные цвета                           : BT.601 NTSC
Характеристики трансфера                 : BT.601
Коэффициенты матрицы                     : BT.601
colour_range                             : Limited
Аудио
Идентификатор                            : 2
Формат                                   : MPEG Audio
Версия формата                           : Version 1
Профиль формата                          : Layer 3
Режим                                    : Joint stereo
Идентификатор кодека                     : A_MPEG/L3
Идентификатор кодека/Подсказка           : MP3
Продолжительность                        : 4 м. 12 с.
Вид битрейта                             : Постоянный
Битрейт                                  : 320 Кбит/сек
Каналы                                   : 2 канала
Частота                                  : 44,1 КГц
Метод сжатия                             : С потерями
Размер потока                            : 9,64 Мбайт (5%)
Заголовок                                : MP3
Библиотека кодирования                   : LAME3.99.5
Default                                  : Да
Forced                                   : Нет

Скриншоты:

Яндекс.Метрика
Рейтинг@Mail.ru