[ Сегодня на трекере фрилич! Идет свободное скачивание без начисления Download ]

Viasat History: Кровавые династии Британии. Плантагенеты / Britain's Bloodiest Dynasty. The Plantagenets [серии 1-4 из 4]

 

Создавать темы 31-Авг-2015 06:25

Viasat History: Кровавые династии Британии. Плантагенеты / Britain's Bloodiest Dynasty. The Plantagenets [серии 1-4 из 4]- Год выпуска: 2014
Страна: Великобритания, Channel 5 Broadcasting Ltd.
Жанр: Документально-постановочный, история
Продолжительность: 4x~00:45:25
Перевод: Профессиональный (одноголосый), переведено и озвучено на студии "SDI Media", перевод Геннадия Максимова, текст читает Роман Антанович
Режисер: Оливер Твинч, Джеймс Товелл / Oliver Twinch, James Tovell
Участники: Ведущий - Дэн Джонс / Dan Jones-Описание:
Убийство, предательство, тирания ... это реальная игра престолов. Из хаоса, тьмы и насилия средневековья, одна семья выросла, чтобы захватить контроль над Англией, безжалостно править страной в течение более трехсот лет.
Историк Дэн Джонс расскажет о самой кровавой королевской династии – Плантагенетах. Движимые амбициями, завистью, ненавистью и местью, они правили Британией и Францией на протяжении длительного времени. Дэн расскажет о властных отцах, слабовольных сыновьях, вероломных союзниках, неверных женах, враждующих братьях и лучших друзьях, ставших заклятыми врагами. Каждый из них проводил реформы, перекраивал королевство и, тем самым, менял ход истории.-Список серий:
01. Предательство / Betrayal
Дэн Джонс расскажет о первом короле Англии из династии Плантагенетов - Генрихе II, который превратил Англию из необузданной страны в одну из самых великих империй в Европе.
02. Ненависть / Hatred
Дэн продолжает историю о Плантагенетах и рассказывает о короле Генрихе III, о его вероломном друге Симоне де Монфоре, который пытался ограничить королевскую власть в пользу баронов.
03. Месть / Revenge
Дэн Джонс расскажет о правлении Эдуарда II, а также о его жене Изабелле, которая сумела собрать достаточно сторонников, чтобы свергнуть мужа.
04 Тирания / Tyranny
Дэн Джонс расскажет о Ричарде II, который став королём в десятилетнем возрасте, показал себя слабым и в то же время деспотичным правителем.-Качество: SATRip
Контейнер: AVI
Видео кодек: XviD
Аудио кодек: AC3
Видео: 720x400 25fps 1936kbps
Аудио 1: (Rus) AC3 2ch, 48kHz, 192 kbps
Аудио 2: (En) AC3 2ch, 48kHz, 192 kbps-

MediaInfo

Format : AVI
Format/Info : Audio Video Interleave
File size : 758 MiB
Duration : 45mn 25s
Overall bit rate : 2 334 Kbps
Writing application : VirtualDubMod 1.5.10.3 | www.virtualdub-fr.org || (build 2550/release)
Writing library : VirtualDubMod build 2550/release
Video
ID : 0
Format : MPEG-4 Visual
Format profile : Advanced [email protected]
Format settings, BVOP : 2
Format settings, QPel : No
Format settings, GMC : No warppoints
Format settings, Matrix : Default (H.263)
Muxing mode : Packed bitstream
Codec ID : XVID
Codec ID/Hint : XviD
Duration : 45mn 25s
Bit rate : 1 936 Kbps
Width : 720 pixels
Height : 400 pixels
Display aspect ratio : 16:9
Frame rate : 25.000 fps
Color space : YUV
Chroma subsampling : 4:2:0
Bit depth : 8 bits
Scan type : Progressive
Compression mode : Lossy
Bits/(Pixel*Frame) : 0.269
Stream size : 629 MiB (83%)
Writing library : XviD 73
Audio #1
ID : 1
Format : AC-3
Format/Info : Audio Coding 3
Mode extension : CM (complete main)
Format settings, Endianness : Big
Codec ID : 2000
Duration : 45mn 24s
Bit rate mode : Constant
Bit rate : 192 Kbps
Channel(s) : 2 channels
Channel positions : Front: L R
Sampling rate : 48.0 KHz
Compression mode : Lossy
Stream size : 62.4 MiB (8%)
Alignment : Split accross interleaves
Interleave, duration : 40 ms (1.00 video frame)
Interleave, preload duration : 500 ms
Audio #2
ID : 2
Format : AC-3
Format/Info : Audio Coding 3
Mode extension : CM (complete main)
Format settings, Endianness : Big
Codec ID : 2000
Duration : 45mn 25s
Bit rate mode : Constant
Bit rate : 192 Kbps
Channel(s) : 2 channels
Channel positions : Front: L R
Sampling rate : 48.0 KHz
Compression mode : Lossy
Stream size : 62.4 MiB (8%)
Alignment : Split accross interleaves
Interleave, duration : 40 ms (1.00 video frame)
Interleave, preload duration : 500 ms
-Скриншоты--Благодарность за предоставленный рип: -Время раздачи: 24/7 (круглосуточно)
Яндекс.Метрика
Рейтинг@Mail.ru