Идеальный голос 2 / Pitch Perfect 2 (2015) BDRip 720p | Лицензия

 

Создавать темы 29-Авг-2015 15:16

Русское название: Идеальный голос 2
Оригинальное название: Pitch Perfect 2
Год выпуска: 2015
Жанр: комедия, музыка
Выпущено: США
Режиссер: Элизабет Бэнкс
В ролях: Анна Кендрик , Ребел Уилсон , Хейли Стайнфелд , Бриттани Сноу , Скайлар Эстин , Адам Дивайн , Кэти Сагал , Анна Кэмп , Бен Платт , Алексис Нэп , Хана Мэй Ли , Эстер Дин
Перевод: Дублированный - [Лицензия]

Сюжет фильма:
Самые крутые девчонки возвращаются! Теперь у них все по-взрослому: ремиксы - моднее, каблуки - выше, юбки - короче. Но идеальный голос всегда на месте.

Качество: BDRip 720p
Формат: AVC (библиотека кодирования x.264)
Контейнер (Расширение): MKV
Видео: 1280x692, 6000 Кбит/сек, 23,976 кадр/сек, 0,283 Бит/[Пиксели*Кадры]
Аудио №1: русский / AC3 / 5.1 / 48 kHz / 448 kbps / |Дублированный|
Аудио №2: английский / AC3 / 5.1 / 48 kHz / 640 kbps /
Субтитры: русские
Продолжительность: 01:54:46

MediaInfo

Format : Matroska
Format version : Version 2
File size : 5.68 GiB
Duration : 1h 54mn
Overall bit rate : 7 089 Kbps
Movie name : Ideal'nyj golos 2.(2015).BDRip.720p.[denis100]
Encoded date : UTC 2015-08-29 08:04:24
Writing application : mkvmerge v5.8.0 ('No Sleep / Pillow') built on Sep 2 2012 15:37:04
Writing library : libebml v1.2.3 + libmatroska v1.3.0
Video
ID : 1
Format : AVC
Format/Info : Advanced Video Codec
Format profile : [email protected]
Format settings, CABAC : Yes
Format settings, ReFrames : 9 frames
Codec ID : V_MPEG4/ISO/AVC
Duration : 1h 54mn
Bit rate : 6 000 Kbps
Width : 1 280 pixels
Height : 692 pixels
Display aspect ratio : 1.850
Frame rate : 23.976 fps
Color space : YUV
Chroma subsampling : 4:2:0
Bit depth : 8 bits
Scan type : Progressive
Bits/(Pixel*Frame) : 0.283
Stream size : 4.70 GiB (83%)
Title : Ideal'nyj golos 2.(2015).BDRip.720p.[denis100]
Writing library : x264 core 130 r2273 b3065e6
Encoding settings : cabac=1 / ref=9 / deblock=1:-3:-3 / analyse=0x3:0x113 / me=umh / subme=11 / psy=1 / psy_rd=0.95:0.05 / mixed_ref=1 / me_range=32 / chroma_me=1 / trellis=2 / 8x8dct=1 / cqm=0 / deadzone=21,11 / fast_pskip=0 / chroma_qp_offset=-5 / threads=12 / lookahead_threads=2 / sliced_threads=0 / nr=0 / decimate=0 / interlaced=0 / bluray_compat=0 / constrained_intra=0 / bframes=8 / b_pyramid=2 / b_adapt=2 / b_bias=0 / direct=3 / weightb=1 / open_gop=0 / weightp=2 / keyint=250 / keyint_min=23 / scenecut=40 / intra_refresh=0 / rc_lookahead=90 / rc=2pass / mbtree=1 / bitrate=6000 / ratetol=1.0 / qcomp=0.60 / qpmin=0 / qpmax=69 / qpstep=4 / cplxblur=20.0 / qblur=0.5 / ip_ratio=1.40 / aq=1:0.80
Language : English
Default : Yes
Forced : No
Audio #1
ID : 2
Format : AC-3
Format/Info : Audio Coding 3
Mode extension : CM (complete main)
Codec ID : A_AC3
Duration : 1h 54mn
Bit rate mode : Constant
Bit rate : 448 Kbps
Channel(s) : 6 channels
Channel positions : Front: L C R, Side: L R, LFE
Sampling rate : 48.0 KHz
Bit depth : 16 bits
Compression mode : Lossy
Stream size : 368 MiB (6%)
Title : Дублированный
Language : Russian
Default : No
Forced : No
Audio #2
ID : 3
Format : AC-3
Format/Info : Audio Coding 3
Mode extension : CM (complete main)
Codec ID : A_AC3
Duration : 1h 54mn
Bit rate mode : Constant
Bit rate : 640 Kbps
Channel(s) : 6 channels
Channel positions : Front: L C R, Side: L R, LFE
Sampling rate : 48.0 KHz
Bit depth : 16 bits
Compression mode : Lossy
Stream size : 525 MiB (9%)
Language : English
Default : No
Forced : No
Text
ID : 4
Format : UTF-8
Codec ID : S_TEXT/UTF8
Codec ID/Info : UTF-8 Plain Text
Language : Russian
Default : No
Forced : No

x264

x264 [info]: frame I:1704 Avg QP:15.78 size:190939
x264 [info]: frame P:40777 Avg QP:19.16 size: 61733
x264 [info]: frame B:122620 Avg QP:21.21 size: 18930
x264 [info]: consecutive B-frames: 3.2% 3.6% 15.1% 26.8% 18.1% 29.1% 2.8% 0.8% 0.5%

Скриншоты:

Яндекс.Метрика
Рейтинг@Mail.ru