Прикосновение медузы / The Medusa Touch (1978) BDRip 720p | P2, A

 

Создавать темы 27-Авг-2015 23:32

Прикосновение медузы / The Medusa TouchГод выпуска: 1978
Жанр: ужасы, фантастика
Режиссер: Джек Голд
В ролях:
Ричард Бёртон, Лино Вентура, Ли Ремик, Гарри Эндрюс, Алан Бэдел, Мари-Кристин Барро, Джереми Бретт, Майкл Хордерн, Гордон Джексон, Майкл Бирн
Описание:
Убит писатель Морлар. Следствие поручено вести полицейскому инспектору Брунелю. Он начинает расследование и пытается обнаружить убийцу, изучая обстоятельства жизни потерпевшего. Постепенно складывается страшная мистическая картина, в центре которой находится гений экстрасенсорики, мизантроп и отцеубийца. Не желая покидать этот мир до того, как произойдет последний финальный акт спланированной им череды катастроф, он цепко держится за жизнь, даже находясь в коме. Инспектору необходимо предотвратить катастрофу и обезвредить маньяка…

Выпущено: Великобритания, Франция
Перевод: Профессиональный двухголосый, авторский (А.Михалев)
Субтитры: Нет
Продолжительность: 01:49:00
Качество: BDRip 720p
Контейнер: MKV
Видео: 1280x720, MPEG-4 AVC Video, 24.000 fps, ~5000 kbps
Аудио№1: Russian: 48 kHz, АС3, 2 ch, 224 kbps [двухголосый]
Аудио№2: Russian: 48 kHz, АС3, 2 ch, 192 kbps [одноголосый, Михалев]--

M/I

General
Unique ID                   : 214161384556554420980708764136440390282 (0xA11DFB7AF4673504F186A0286960E28A)
Complete name               : F:FILMSПрикосновение медузы.(1978).BLU-RAY.720p.[-=DoMiNo=-].mkv
Format                      : Matroska
Format version              : Version 4 / Version 2
File size                   : 4.13 GiB
Duration                    : 1h 49mn
Overall bit rate            : 5 420 Kbps
Writing application         : XviD4PSP 7.0.170
Writing library             : Lavf56.25.101
ENCODING_INFO               : BluRay > MKV 720p / H264 > X264 VBR-2P 5000kbps Custom / AC3 > COPY  / AC3 > COPY
Video
ID                          : 1
Format                      : AVC
Format/Info                 : Advanced Video Codec
Format profile              : [email protected]
Format settings, CABAC      : Yes
Format settings, ReFrames   : 8 frames
Codec ID                    : V_MPEG4/ISO/AVC
Duration                    : 1h 49mn
Bit rate                    : 5 000 Kbps
Width                       : 1 280 pixels
Height                      : 720 pixels
Display aspect ratio        : 16:9
Frame rate mode             : Constant
Frame rate                  : 24.000 fps
Color space                 : YUV
Chroma subsampling          : 4:2:0
Bit depth                   : 8 bits
Scan type                   : Progressive
Bits/(Pixel*Frame)          : 0.226
Stream size                 : 3.73 GiB (90%)
Writing library             : x264 core 148 r2597M e86f3a1
Encoding settings           : cabac=1 / ref=8 / deblock=1:-3:-3 / analyse=0x3:0x133 / me=umh / subme=11 / psy=1 / psy_rd=1.00:0.20 / mixed_ref=1 / me_range=32 / chroma_me=1 / trellis=2 / 8x8dct=1 / cqm=0 / deadzone=21,11 / fast_pskip=0 / chroma_qp_offset=-3 / threads=5 / lookahead_threads=1 / sliced_threads=0 / nr=0 / decimate=1 / interlaced=0 / bluray_compat=0 / constrained_intra=0 / bframes=7 / b_pyramid=2 / b_adapt=2 / b_bias=0 / direct=3 / weightb=1 / open_gop=0 / weightp=2 / keyint=240 / keyint_min=24 / scenecut=40 / intra_refresh=0 / rc=2pass / mbtree=0 / bitrate=5000 / ratetol=1.0 / qcomp=0.60 / qpmin=0 / qpmax=69 / qpstep=4 / cplxblur=20.0 / qblur=0.5 / ip_ratio=1.40 / pb_ratio=1.30 / aq=1:1.00
Default                     : Yes
Forced                      : No
Color range                 : Limited
Color primaries             : BT.709
Transfer characteristics    : BT.709
Matrix coefficients         : BT.709
Audio #1
ID                          : 2
Format                      : AC-3
Format/Info                 : Audio Coding 3
Mode extension              : CM (complete main)
Format settings, Endianness : Big
Codec ID                    : A_AC3
Duration                    : 1h 49mn
Bit rate mode               : Constant
Bit rate                    : 224 Kbps
Channel(s)                  : 2 channels
Channel positions           : Front: L R
Sampling rate               : 48.0 KHz
Bit depth                   : 32 bits
Compression mode            : Lossy
Stream size                 : 175 MiB (4%)
Language                    : Russian
Default                     : Yes
Forced                      : No
Audio #2
ID                          : 3
Format                      : AC-3
Format/Info                 : Audio Coding 3
Mode extension              : CM (complete main)
Format settings, Endianness : Big
Codec ID                    : A_AC3
Duration                    : 1h 49mn
Bit rate mode               : Constant
Bit rate                    : 192 Kbps
Channel(s)                  : 2 channels
Channel positions           : Front: L R
Sampling rate               : 48.0 KHz
Bit depth                   : 32 bits
Compression mode            : Lossy
Stream size                 : 150 MiB (4%)
Language                    : Russian
Default                     : No
Forced                      : No
Menu
00:00:00.000                : :Глава 1
00:08:56.000                : :Глава 2
00:20:26.833                : :Глава 3
00:25:14.000                : :Глава 4
00:33:51.000                : :Глава 5
00:44:52.916                : :Глава 6
00:52:30.000                : :Глава 7
01:05:38.000                : :Глава 8
01:13:08.500                : :Глава 9
01:20:57.832                : :Глава 10
01:29:18.000                : :Глава 11
01:37:47.832                : :Глава 12
01:48:59.958                : :Глава 13

Скриншоты:

Яндекс.Метрика
Рейтинг@Mail.ru