Вне/себя / Self/less (2015) WEB-DL 720p | iTunes

 

Создавать темы 27-Авг-2015 14:47

Вне/себя / Self/lessГод выхода: 2015
Жанр: фантастика, триллер, детектив
Режиссер: Тарсем Сингх
В ролях:
Райан Рейнольдс, Бен Кингсли, Натали Мартинес, Мэттью Гуд, Виктор Гарбер, Дерек Люк, Джейни-Линн Кинчен, Мелора Хардин, Мишель Докери, Сэмюэл Пейдж
О фильме:
В будущем становится возможным победить смерть с помощью имплантации своего сознания в молодое тело, созданное методом генной инженерии. Операция эта дорогостоящая и проводится подпольно, а поэтому доступна лишь ограниченному кругу лиц. Умирающий пожилой бизнесмен решается на это и получает возможность прожить еще одну жизнь. Однако когда ему приоткрывается тайна происхождения нового тела, за ним начинает охоту секретная организация, которая не остановится ни перед чем, чтобы защитить свои интересы.


Выпущено: США / Endgame Entertainment, Ram Bergman Productions
Продолжительность: 01:52:12
Озвучивание: Дублированное [iTunes]
Файл
Формат: MKV
Качество: WEB-DL 720p
Видео: 3972 kb/s, [email protected]
Аудио: AC3, 384 kb/s (6 ch)

MI

Format                         : Matroska
Format version                 : Version 4 / Version 2
File size                      : 3.48 GiB
Duration                       : 1h 52mn
Overall bit rate               : 4 445 Kbps
Encoded date                   : UTC 2015-08-26 18:15:32
Writing application            : mkvmerge v6.9.1 ('Blue Panther') 64bit built on Apr 18 2014 18:23:38
Writing library                : libebml v1.3.0 + libmatroska v1.4.1
Video
ID                             : 1
Format                         : AVC
Format/Info                    : Advanced Video Codec
Format profile                 : [email protected]
Format settings, CABAC         : No
Format settings, ReFrames      : 2 frames
Codec ID                       : V_MPEG4/ISO/AVC
Duration                       : 1h 52mn
Bit rate                       : 3 972 Kbps
Width                          : 960 pixels
Height                         : 720 pixels
Display aspect ratio           : 16:9
Frame rate mode                : Constant
Frame rate                     : 25.000 fps
Color space                    : YUV
Chroma subsampling             : 4:2:0
Bit depth                      : 8 bits
Scan type                      : Progressive
Bits/(Pixel*Frame)             : 0.230
Stream size                    : 3.11 GiB (89%)
Language                       : English
Default                        : Yes
Forced                         : No
Color range                    : Limited
Color primaries                : BT.709
Transfer characteristics       : BT.709
Matrix coefficients            : BT.709
Audio
ID                             : 2
Format                         : AC-3
Format/Info                    : Audio Coding 3
Mode extension                 : CM (complete main)
Format settings, Endianness    : Big
Codec ID                       : A_AC3
Duration                       : 1h 52mn
Bit rate mode                  : Constant
Bit rate                       : 384 Kbps
Channel(s)                     : 6 channels
Channel positions              : Front: L C R, Side: L R, LFE
Sampling rate                  : 48.0 KHz
Bit depth                      : 16 bits
Compression mode               : Lossy
Stream size                    : 308 MiB (9%)
Language                       : Russian
Default                        : Yes
Forced                         : No
Menu
00:00:00.000                   : en:Глава 1
00:05:00.000                   : en:Глава 2
00:10:35.000                   : en:Глава 3
00:15:50.000                   : en:Глава 4
00:20:12.000                   : en:Глава 5
00:25:30.000                   : en:Глава 6
00:30:14.000                   : en:Глава 7
00:35:37.000                   : en:Глава 8
00:42:07.000                   : en:Глава 9
00:47:04.000                   : en:Глава 10
00:52:10.000                   : en:Глава 11
00:56:50.000                   : en:Глава 12
01:02:12.000                   : en:Глава 13
01:07:01.000                   : en:Глава 14
01:12:14.000                   : en:Глава 15
01:17:09.000                   : en:Глава 16
01:22:41.000                   : en:Глава 17
01:27:46.000                   : en:Глава 18
01:32:49.000                   : en:Глава 19
01:38:20.000                   : en:Глава 20
01:43:20.000                   : en:Глава 21

Скриншоты:

Яндекс.Метрика
Рейтинг@Mail.ru