[ Сегодня на трекере фрилич! Идет свободное скачивание без начисления Download ]

VA - ZYX Italo Disco New Generation. Vol. 1-6 (2012-2015) [FLAC|image+.cue]<Italo-Disco, Euro-Disco>

 

Создавать темы 26-Авг-2015 14:19

-VA - ZYX Italo Disco New Generation. Vol. 1-6- Год: 2012-2015
Жанр: Italo-Disco, Euro-Disco
Страна-производитель диска: Germany, Europe
Издатель (лейбл): ZYX Music
Носитель: CD, Compilation
Продолжительность: 15:18:24
Наличие сканов в содержимом раздачи: да
Кодек: FLAC
Тип рипа: image+.cue
Битрейт: Lossless

2012 - ZYX Italo Disco New Generation Vol. 1

Label: ZYX Music – ZYX 82601-2
Format: 2хCD, Compilation
Released: 24 Aug 2012
Продолжительность: 02:33:30
Треклиcт:
CD 1
01.Ryan Paris - Parisienne Girl (Eddy Remix) 6:13
02.Tiziana Rivale - Ash (Vocal Version) 6:26
03.Squash Gang - Hey You (what's Coming On Along The Way) 6:06
04.Ken Laszlo - Dancing Together (Vocal Version) 6:37
05.Roby & Claudia - Stay (Extended Version) 8:40
06.D.J. Savage - When We In Illusion (Special ZYX Long Version) 7:33
07.Mode-One - Sometimes 7:02
08.Siberian Heat - In Your City (Maxi-Version) 7:46
09.Nikita Fomin - Stranger (Dream Version) 6:23
10.Miko Mission - Let It Be Love (Original Mix) 6:17
11.Eddy Huntington - Love For Russia (Ruble Version) 6:13
CD2
01. Joy Peters - Asian Heart (Maxi Version) (5:33)
02. Vyck Vyo - Angelina (Extended Version) (5:14)
03. Boy Blue - Alone Again (Extended Vocal Mix) (6:04)
04. Elen Cora - Astronomers In China (Maxi Version) (6:58)
05. Retronic Voice - Dancing In My Dream (Special Extended) (7:33)
06. Dario - All The Night (Extended Version) (6:31)
07. Mirko Hirsch - Sweet Surrender (Extended Version) (6:48)
08. Dyva - Joy (Extended Version) (6:01)
09. Magic System D.J. - I Wanna Touch Your Body Now (Extended Version) (6:41)
10. The Sweeps - Facing The Night (Flashback Italo Remix) (7:22)
11. D.J. Savage - Rain Of Love (Maxi Version) (5:28)
12. Daniel Pettersson - Seventh Heaven (Extended Mix) (6:20)

Отчёт ЕАС&#58;

CD 1
Exact Audio Copy V1.0 beta 3 from 29. August 2011
EAC extraction logfile from 1. May 2014, 12:12
Various Artists / ZYX Italo Disco New Generation Vol.1 CD1
Used drive  : SONY    DVD RW DRU-820A   Adapter: 3  ID: 0
Read mode               : Secure
Utilize accurate stream : Yes
Defeat audio cache      : Yes
Make use of C2 pointers : No
Read offset correction                      : 102
Overread into Lead-In and Lead-Out          : No
Fill up missing offset samples with silence : Yes
Delete leading and trailing silent blocks   : No
Null samples used in CRC calculations       : Yes
Used interface                              : Native Win32 interface for Win NT & 2000
Used output format              : User Defined Encoder
Selected bitrate                : 768 kBit/s
Quality                         : High
Add ID3 tag                     : No
Command line compressor         : C:\Program Files\Exact Audio Copy\FLAC\FLAC.EXE
Additional command line options : -6 -V -T "ARTIST=%artist%" -T "TITLE=%title%" -T "ALBUM=%albumtitle%" -T "DATE=%year%" -T "TRACKNUMBER=%tracknr%" -T "GENRE=%genre%" -T "COMMENT=%comment%" -T "BAND=%albuminterpret%" -T "ALBUMARTIST=%albuminterpret%" -T "COMPOSER=%composer%" %haslyrics%--tag-from-file=LYRICS="%lyricsfile%"%haslyrics% -T "DISCNUMBER=%cdnumber%" -T "TOTALDISCS=%totalcds%" -T "TOTALTRACKS=%numtracks%" %hascover%--picture="%coverfile%"%hascover% %source% -o %dest%
TOC of the extracted CD
     Track |   Start  |  Length  | Start sector | End sector
    ---------------------------------------------------------
        1  |  0:00.00 |  7:43.17 |         0    |    34741
        2  |  7:43.17 |  6:23.60 |     34742    |    63526
        3  | 14:07.02 |  6:01.74 |     63527    |    90675
        4  | 20:09.01 |  6:38.57 |     90676    |   120582
        5  | 26:47.58 |  8:54.07 |    120583    |   160639
        6  | 35:41.65 |  7:31.68 |    160640    |   194532
        7  | 43:13.58 |  7:05.51 |    194533    |   226458
        8  | 50:19.34 |  7:46.57 |    226459    |   261465
        9  | 58:06.16 |  6:24.02 |    261466    |   290267
       10  | 64:30.18 |  6:16.40 |    290268    |   318507
       11  | 70:46.58 |  6:11.34 |    318508    |   346366
Range status and errors
Selected range
     Filename E:\Torrents\Various Artists - ZYX Italo Disco New Generation Vol.1-4\Various Artists - ZYX Italo Disco New Generation Vol.1 (2012)\CD 1\Various Artists - ZYX Italo Disco New Generation Vol.1 CD1.wav
     Peak level 98.8 %
     Extraction speed 3.4 X
     Range quality 99.9 %
     Test CRC EABB70B1
     Copy CRC EABB70B1
     Copy OK
No errors occurred
AccurateRip summary
Track  1  accurately ripped (confidence 3)  [6C02D373]  (AR v2)
Track  2  accurately ripped (confidence 3)  [52D68700]  (AR v2)
Track  3  accurately ripped (confidence 3)  [CE5CCB81]  (AR v2)
Track  4  accurately ripped (confidence 3)  [E16806D8]  (AR v2)
Track  5  accurately ripped (confidence 3)  [41EC9F8C]  (AR v2)
Track  6  accurately ripped (confidence 3)  [9E11E78C]  (AR v2)
Track  7  accurately ripped (confidence 3)  [1046D0B5]  (AR v2)
Track  8  accurately ripped (confidence 3)  [7DC6A240]  (AR v2)
Track  9  accurately ripped (confidence 3)  [620CCF7D]  (AR v2)
Track 10  accurately ripped (confidence 3)  [778EBB8E]  (AR v2)
Track 11  accurately ripped (confidence 3)  [20635046]  (AR v2)
All tracks accurately ripped
End of status report
==== Log checksum FDF8F695A5E4DB6B0F10DBD4A1E7F8BC842DAB190D046E9F78231B352A35E11E ====
CD 2
Exact Audio Copy V1.0 beta 3 from 29. August 2011
EAC extraction logfile from 1. May 2014, 12:35
Various Artists / ZYX Italo Disco New Generation Vol.1 CD2
Used drive  : SONY    DVD RW DRU-820A   Adapter: 3  ID: 0
Read mode               : Secure
Utilize accurate stream : Yes
Defeat audio cache      : Yes
Make use of C2 pointers : No
Read offset correction                      : 102
Overread into Lead-In and Lead-Out          : No
Fill up missing offset samples with silence : Yes
Delete leading and trailing silent blocks   : No
Null samples used in CRC calculations       : Yes
Used interface                              : Native Win32 interface for Win NT & 2000
Used output format              : User Defined Encoder
Selected bitrate                : 768 kBit/s
Quality                         : High
Add ID3 tag                     : No
Command line compressor         : C:\Program Files\Exact Audio Copy\FLAC\FLAC.EXE
Additional command line options : -6 -V -T "ARTIST=%artist%" -T "TITLE=%title%" -T "ALBUM=%albumtitle%" -T "DATE=%year%" -T "TRACKNUMBER=%tracknr%" -T "GENRE=%genre%" -T "COMMENT=%comment%" -T "BAND=%albuminterpret%" -T "ALBUMARTIST=%albuminterpret%" -T "COMPOSER=%composer%" %haslyrics%--tag-from-file=LYRICS="%lyricsfile%"%haslyrics% -T "DISCNUMBER=%cdnumber%" -T "TOTALDISCS=%totalcds%" -T "TOTALTRACKS=%numtracks%" %hascover%--picture="%coverfile%"%hascover% %source% -o %dest%
TOC of the extracted CD
     Track |   Start  |  Length  | Start sector | End sector
    ---------------------------------------------------------
        1  |  0:00.00 |  5:32.43 |         0    |    24942
        2  |  5:32.43 |  5:13.41 |     24943    |    48458
        3  | 10:46.09 |  6:03.71 |     48459    |    75754
        4  | 16:50.05 |  6:58.12 |     75755    |   107116
        5  | 23:48.17 |  7:33.04 |    107117    |   141095
        6  | 31:21.21 |  6:30.44 |    141096    |   170389
        7  | 37:51.65 |  6:48.18 |    170390    |   201007
        8  | 44:40.08 |  6:00.54 |    201008    |   228061
        9  | 50:40.62 |  6:40.67 |    228062    |   258128
       10  | 57:21.54 |  7:22.36 |    258129    |   291314
       11  | 64:44.15 |  5:27.45 |    291315    |   315884
       12  | 70:11.60 |  6:20.34 |    315885    |   344418
Range status and errors
Selected range
     Filename E:\Torrents\Various Artists - ZYX Italo Disco New Generation Vol.1-4\Various Artists - ZYX Italo Disco New Generation Vol.1 (2012)\CD 2\Various Artists - ZYX Italo Disco New Generation Vol.1 CD2.wav
     Peak level 98.8 %
     Extraction speed 8.0 X
     Range quality 99.9 %
     Test CRC 65D250B0
     Copy CRC 65D250B0
     Copy OK
No errors occurred
AccurateRip summary
Track  1  accurately ripped (confidence 3)  [16B8A312]  (AR v2)
Track  2  accurately ripped (confidence 3)  [C6143DC2]  (AR v2)
Track  3  accurately ripped (confidence 3)  [AE985F8F]  (AR v2)
Track  4  accurately ripped (confidence 3)  [69884ACE]  (AR v2)
Track  5  accurately ripped (confidence 3)  [475B5FBD]  (AR v2)
Track  6  accurately ripped (confidence 3)  [E34CBAD8]  (AR v2)
Track  7  accurately ripped (confidence 3)  [7457F188]  (AR v2)
Track  8  accurately ripped (confidence 3)  [EA9002ED]  (AR v2)
Track  9  accurately ripped (confidence 3)  [49C479DF]  (AR v2)
Track 10  accurately ripped (confidence 3)  [074477D2]  (AR v2)
Track 11  accurately ripped (confidence 3)  [ACEA5388]  (AR v2)
Track 12  accurately ripped (confidence 3)  [4E5B770E]  (AR v2)
All tracks accurately ripped
End of status report
==== Log checksum ACF46CB9313D68A8D628EA354FE5896E19F0A582C36376345758F3CFD9E0D83A ====
Треклист:
Список альбомов:
2012 - ZYX Italo Disco New Generation Vol. 1
2013 - ZYX Italo Disco New Generation Vol. 2
2013 - ZYX Italo Disco New Generation Vol. 3
2014 - ZYX Italo Disco New Generation Vol. 4
2014 - ZYX Italo Disco New Generation Vol. 5
2015 - ZYX Italo Disco New Generation Vol. 6

Отчёт auCDtect Task manager&#58;

CD 1
-----------------------
DON'T MODIFY THIS FILE
-----------------------
PERFORMER: auCDtect Task Manager, ver. 1.0.0 Stable build 1.0.0.0
Copyright (c) 2008, 2009 y-soft. All rights reserved
http://y-soft.110mb.com
ANALYZER: auCDtect: CD records authenticity detector, version 0.8.2
Copyright (c) 2004 Oleg Berngardt. All rights reserved.
Copyright (c) 2004 Alexander Djourik. All rights reserved.
FILE: Various Artists - ZYX Italo Disco New Generation Vol.1 CD1.flac
  Size: 580249869 Hash: 19E04BFDD60A95749DD75A0BECEF38F0 Accuracy: -m0
  Conclusion: CDDA 100%
  Signature: 98AB3EE17D20C0B1A3A0722B563674412B687D9E
CD 2
-----------------------
DON'T MODIFY THIS FILE
-----------------------
PERFORMER: auCDtect Task Manager, ver. 1.0.0 Stable build 1.0.0.0
Copyright (c) 2008, 2009 y-soft. All rights reserved
http://y-soft.110mb.com
ANALYZER: auCDtect: CD records authenticity detector, version 0.8.2
Copyright (c) 2004 Oleg Berngardt. All rights reserved.
Copyright (c) 2004 Alexander Djourik. All rights reserved.
FILE: Various Artists - ZYX Italo Disco New Generation Vol.1 CD2.flac
  Size: 554657428 Hash: E2E6DC9FE39809F879DDC5221427BA9C Accuracy: -m0
  Conclusion: CDDA 100%
  Signature: 407132C33CE04A996011BF61A0992FAC5A31E80E

2013 - ZYX Italo Disco New Generation Vol. 2

Label: ZYX Music – ZYX 82648-2
Format: 2хCD, Compilation
Released: 05 Apr 2013
Продолжительность: 02:37:07
Треклиcт:
CD1
01. Vanello & Steven Kimber - S.O.S. For Love (Maxi Version) (5:39)
02. Lenroy - Do You (Extended Version) (6:31)
03. TQ - Let's Go To Tokyo (Axel Remix) (4:55)
04. Siberian Heat - Magic Blue Eyes (Long Version) (8:58)
05. Tommy Sun - Dancer (Italo Mix) (7:25)
06. Michael Nolen - You Try, You Choose (Long Mix) (6:12)
07. Mirko Hirsch - Love On The Run (Extended Version) (7:15)
08. Aldo Lesina - Romance (Disco Mix) (5:48)
09. Magic System D.J. - Inside (Maxi Version) (5:07)
10. Boris Zhivago - In A World Of Fantasy (Long Fantasy Mix) (8:56)
11. Neon Game - Live The Night (Extended Version) (5:38)
12. Galactic Warriors - Humanoid Battle (Extended Version) (6:09)
CD2
01. Italove - Follow Me To Mexico (Flashback Ri-Mix) (6:26)
02. Eddy Huntington - Honey, Honey! (Extended Version) (6:14)
03. The Sweeps - Optimistic Melancholic (Special Extended Version) (6:53)
04. Mode One - She's Dancing Alone (Extended Version) (6:31)
05. TQ - Let The Night Remain Forever (Extended Version) (7:56)
06. Dreamtime - Among The Stars (FM Mix) (6:13)
07. Vyck Vyo - Elena (Classic Euro Extended Mix) (5:13)
08. Elen Cora - Drama (Long Version) (9:08)
09. Amaya - Sensation (Extended Version) (4:40)
10. D.J. Savage - You Can Fly (Special ZYX Long Version) (6:45)
11. Synthesis - Sunbeam (Extended Mix) (6:44)
12. DK Duke Vs. Paul & Simon - Paris Latino (Italo Disco Extended Mix) (2:56)
13. Robbie Groove & Mattias Feat. Cece Rogers With Master Freez - You Droid (Extended Mix) (2:58)

Отчёт ЕАС&#58;

CD 1
Exact Audio Copy V1.0 beta 3 from 29. August 2011
EAC extraction logfile from 1. May 2014, 13:21
Various Artists / ZYX Italo Disco New Generation Vol.2 CD 1
Used drive  : SONY    DVD RW DRU-820A   Adapter: 3  ID: 0
Read mode               : Secure
Utilize accurate stream : Yes
Defeat audio cache      : Yes
Make use of C2 pointers : No
Read offset correction                      : 102
Overread into Lead-In and Lead-Out          : No
Fill up missing offset samples with silence : Yes
Delete leading and trailing silent blocks   : No
Null samples used in CRC calculations       : Yes
Used interface                              : Native Win32 interface for Win NT & 2000
Used output format              : User Defined Encoder
Selected bitrate                : 768 kBit/s
Quality                         : High
Add ID3 tag                     : No
Command line compressor         : C:\Program Files\Exact Audio Copy\FLAC\FLAC.EXE
Additional command line options : -6 -V -T "ARTIST=%artist%" -T "TITLE=%title%" -T "ALBUM=%albumtitle%" -T "DATE=%year%" -T "TRACKNUMBER=%tracknr%" -T "GENRE=%genre%" -T "COMMENT=%comment%" -T "BAND=%albuminterpret%" -T "ALBUMARTIST=%albuminterpret%" -T "COMPOSER=%composer%" %haslyrics%--tag-from-file=LYRICS="%lyricsfile%"%haslyrics% -T "DISCNUMBER=%cdnumber%" -T "TOTALDISCS=%totalcds%" -T "TOTALTRACKS=%numtracks%" %hascover%--picture="%coverfile%"%hascover% %source% -o %dest%
TOC of the extracted CD
     Track |   Start  |  Length  | Start sector | End sector
    ---------------------------------------------------------
        1  |  0:00.00 |  5:39.17 |         0    |    25441
        2  |  5:39.17 |  6:30.57 |     25442    |    54748
        3  | 12:09.74 |  4:54.70 |     54749    |    76868
        4  | 17:04.69 |  8:57.49 |     76869    |   117192
        5  | 26:02.43 |  7:24.53 |    117193    |   150545
        6  | 33:27.21 |  6:11.47 |    150546    |   178417
        7  | 39:38.68 |  7:15.05 |    178418    |   211047
        8  | 46:53.73 |  5:47.72 |    211048    |   237144
        9  | 52:41.70 |  5:06.46 |    237145    |   260140
       10  | 57:48.41 |  8:56.01 |    260141    |   300341
       11  | 66:44.42 |  5:37.68 |    300342    |   325684
       12  | 72:22.35 |  6:08.63 |    325685    |   353347
Range status and errors
Selected range
     Filename E:\Torrents\Various Artists - ZYX Italo Disco New Generation Vol.1-4\Various Artists - ZYX Italo Disco New Generation Vol.2 (2013)\CD 1\Various Artists - ZYX Italo Disco New Generation Vol.2 CD 1.wav
     Peak level 98.8 %
     Extraction speed 6.3 X
     Range quality 99.9 %
     Test CRC F53F427F
     Copy CRC F53F427F
     Copy OK
No errors occurred
AccurateRip summary
Track  1  accurately ripped (confidence 2)  [E47E608A]  (AR v2)
Track  2  accurately ripped (confidence 2)  [9B408B5A]  (AR v2)
Track  3  accurately ripped (confidence 2)  [E71AF382]  (AR v2)
Track  4  accurately ripped (confidence 2)  [E2122E4C]  (AR v2)
Track  5  accurately ripped (confidence 2)  [2B5B6CAE]  (AR v2)
Track  6  accurately ripped (confidence 2)  [347915BD]  (AR v2)
Track  7  accurately ripped (confidence 2)  [C52A3014]  (AR v2)
Track  8  accurately ripped (confidence 2)  [7C66B0AA]  (AR v2)
Track  9  accurately ripped (confidence 2)  [92ED8981]  (AR v2)
Track 10  accurately ripped (confidence 2)  [3BAA07EE]  (AR v2)
Track 11  accurately ripped (confidence 2)  [1B6164A4]  (AR v2)
Track 12  accurately ripped (confidence 2)  [2EAF6400]  (AR v2)
All tracks accurately ripped
End of status report
==== Log checksum 73A6F918A5181F45C2A6452E884CAFA0722E69B45A24A18982C0B6CDA8B0AC12 ====
CD 2
Exact Audio Copy V1.0 beta 3 from 29. August 2011
EAC extraction logfile from 1. May 2014, 14:00
Various Artists / ZYX Italo Disco New Generation Vol.2 CD 2
Used drive  : SONY    DVD RW DRU-820A   Adapter: 3  ID: 0
Read mode               : Secure
Utilize accurate stream : Yes
Defeat audio cache      : Yes
Make use of C2 pointers : No
Read offset correction                      : 102
Overread into Lead-In and Lead-Out          : No
Fill up missing offset samples with silence : Yes
Delete leading and trailing silent blocks   : No
Null samples used in CRC calculations       : Yes
Used interface                              : Native Win32 interface for Win NT & 2000
Used output format              : User Defined Encoder
Selected bitrate                : 768 kBit/s
Quality                         : High
Add ID3 tag                     : No
Command line compressor         : C:\Program Files\Exact Audio Copy\FLAC\FLAC.EXE
Additional command line options : -6 -V -T "ARTIST=%artist%" -T "TITLE=%title%" -T "ALBUM=%albumtitle%" -T "DATE=%year%" -T "TRACKNUMBER=%tracknr%" -T "GENRE=%genre%" -T "COMMENT=%comment%" -T "BAND=%albuminterpret%" -T "ALBUMARTIST=%albuminterpret%" -T "COMPOSER=%composer%" %haslyrics%--tag-from-file=LYRICS="%lyricsfile%"%haslyrics% -T "DISCNUMBER=%cdnumber%" -T "TOTALDISCS=%totalcds%" -T "TOTALTRACKS=%numtracks%" %hascover%--picture="%coverfile%"%hascover% %source% -o %dest%
TOC of the extracted CD
     Track |   Start  |  Length  | Start sector | End sector
    ---------------------------------------------------------
        1  |  0:00.00 |  6:26.03 |         0    |    28952
        2  |  6:26.03 |  6:14.03 |     28953    |    57005
        3  | 12:40.06 |  6:52.67 |     57006    |    87972
        4  | 19:32.73 |  6:30.74 |     87973    |   117296
        5  | 26:03.72 |  7:56.23 |    117297    |   153019
        6  | 34:00.20 |  6:12.65 |    153020    |   180984
        7  | 40:13.10 |  5:13.24 |    180985    |   204483
        8  | 45:26.34 |  9:07.43 |    204484    |   245551
        9  | 54:34.02 |  4:39.56 |    245552    |   266532
       10  | 59:13.58 |  6:44.71 |    266533    |   296903
       11  | 65:58.54 |  6:44.21 |    296904    |   327224
       12  | 72:43.00 |  2:55.45 |    327225    |   340394
       13  | 75:38.45 |  2:57.48 |    340395    |   353717
Range status and errors
Selected range
     Filename E:\Torrents\Various Artists - ZYX Italo Disco New Generation Vol.1-4\Various Artists - ZYX Italo Disco New Generation Vol.2 (2013)\CD 2\Various Artists - ZYX Italo Disco New Generation Vol.2 CD 2.wav
     Peak level 98.8 %
     Extraction speed 7.1 X
     Range quality 100.0 %
     Test CRC A10255A1
     Copy CRC A10255A1
     Copy OK
No errors occurred
AccurateRip summary
Track  1  accurately ripped (confidence 2)  [855B0FDD]  (AR v2)
Track  2  accurately ripped (confidence 2)  [E1A98997]  (AR v2)
Track  3  accurately ripped (confidence 2)  [2E1FF6B4]  (AR v2)
Track  4  accurately ripped (confidence 2)  [3A1213E1]  (AR v2)
Track  5  accurately ripped (confidence 2)  [BD6EA6DA]  (AR v2)
Track  6  accurately ripped (confidence 2)  [7FE5E68C]  (AR v2)
Track  7  accurately ripped (confidence 2)  [E2DEC65D]  (AR v2)
Track  8  accurately ripped (confidence 2)  [D4936FA3]  (AR v2)
Track  9  accurately ripped (confidence 2)  [1A402A11]  (AR v2)
Track 10  accurately ripped (confidence 2)  [931BDCDC]  (AR v2)
Track 11  accurately ripped (confidence 2)  [3AD4AF06]  (AR v2)
Track 12  accurately ripped (confidence 2)  [0075878F]  (AR v2)
Track 13  accurately ripped (confidence 2)  [9E16439A]  (AR v2)
All tracks accurately ripped
End of status report
==== Log checksum 16A54743931E2C9E01C68BA480FF7FD9FF5130DB4A4C24D75118C79E757602EF ====

Отчёт auCDtect Task manager&#58;

CD 1
-----------------------
DON'T MODIFY THIS FILE
-----------------------
PERFORMER: auCDtect Task Manager, ver. 1.0.0 Stable build 1.0.0.0
Copyright (c) 2008, 2009 y-soft. All rights reserved
http://y-soft.110mb.com
ANALYZER: auCDtect: CD records authenticity detector, version 0.8.2
Copyright (c) 2004 Oleg Berngardt. All rights reserved.
Copyright (c) 2004 Alexander Djourik. All rights reserved.
FILE: Various Artists - ZYX Italo Disco New Generation Vol.2 CD 1.flac
  Size: 591374376 Hash: A9B592C8357056F17C974F46361961FD Accuracy: -m0
  Conclusion: CDDA 99%
  Signature: 0A9D3744CCA43AD2A8B3064CB518735B3AD08434
CD 2
-----------------------
DON'T MODIFY THIS FILE
-----------------------
PERFORMER: auCDtect Task Manager, ver. 1.0.0 Stable build 1.0.0.0
Copyright (c) 2008, 2009 y-soft. All rights reserved
http://y-soft.110mb.com
ANALYZER: auCDtect: CD records authenticity detector, version 0.8.2
Copyright (c) 2004 Oleg Berngardt. All rights reserved.
Copyright (c) 2004 Alexander Djourik. All rights reserved.
FILE: Various Artists - ZYX Italo Disco New Generation Vol.2 CD 2.flac
  Size: 570364062 Hash: 190B4D089647D7AFEB3E01573AC23AB5 Accuracy: -m0
  Conclusion: CDDA 100%
  Signature: 50B29F86D861B190715F31423B1F0C9803EC369E

2013 - ZYX Italo Disco New Generation Vol. 3

Label: ZYX Music – ZYX 82683-2
Format: 2хCD, Compilation
Released: 18 Oct 2013
Продолжительность: 02:32:15
Треклиcт:
CD1
01. Savage - Save Me (Vocal Remix) (7:26)
02. Joey Mauro - Japan Kiss (Marschall Longdrink Remix) (6:32)
03. Tess - Cry Away (Italo Disco Extended Mix) (5:23)
04. TQ & Linda Jo Rizzo - Out Of The Shadow (Extended) (8:02)
05. Aldo Lesina - Look Me In The Eyes (Disco Mix) (6:13)
06. D.J. Savage - Love Fly Your Way (Extended Version) (6:39)
07. Modern Tracking - Running Away (TDHDriver Long Mix) (6:53)
08. Synthesis - Galactic Dream (Extended) (7:02)
09. Sally Shapiro - If It Doesn't Rain (Extended Mix) (6:11)
10. Tom Hooker & Miki Chieregato - No Elevation (Flashback Remix) (6:02)
11. Reale Accademia - She's Mine (80s Memories Team Remix) (8:34)
CD2
01. Mirko Hirsch Feat. Elen Cora - Save Me (Just For Tonight) (Extended Version) (6:14)
02. Discobonus - Spend Your Money (Money Maxi Version) (7:29)
03. The Sweeps - The Last Dream (Flemming Dalum & Steen Gjerulff Remix) (5:59)
04. Victor Ark - One More Time (Vocal Version) (6:32)
05. The Crosslines - Tomorrow Is Another Day (Another Day Mix) (6:39)
06. Foxbox - To The Beach (Maxi Version) (5:16)
07. Tiziana Rivale - Flame (Vocal Version) (6:47)
08. Italove - Strangers In The Night (Flashback Ri-Mix) (7:48)
09. Tommy Sun - Magic Carillon (Italo Mix) (6:57)
10. Rick De Moore - Flash On The Floor (Extended Version) (5:06)
11. Alden Tyrell & Fred Ventura - Don't Stop (Original Mix) (7:39)
12. Linda Jo Rizzo - Day Of The Light (80s Maxi Mix) (4:53)

Отчёт ЕАС&#58;

CD 1
Exact Audio Copy V1.0 beta 3 from 29. August 2011
EAC extraction logfile from 8. November 2013, 22:35
Various Artists / ZYX Italo Disco New Generation Vol. 3 CD1
Used drive  : SONY    DVD RW DRU-820A   Adapter: 3  ID: 0
Read mode               : Secure
Utilize accurate stream : Yes
Defeat audio cache      : Yes
Make use of C2 pointers : No
Read offset correction                      : 102
Overread into Lead-In and Lead-Out          : No
Fill up missing offset samples with silence : Yes
Delete leading and trailing silent blocks   : No
Null samples used in CRC calculations       : Yes
Used interface                              : Native Win32 interface for Win NT & 2000
Used output format              : User Defined Encoder
Selected bitrate                : 768 kBit/s
Quality                         : High
Add ID3 tag                     : No
Command line compressor         : C:\Program Files\Exact Audio Copy\FLAC\FLAC.EXE
Additional command line options : -6 -V -T "ARTIST=%artist%" -T "TITLE=%title%" -T "ALBUM=%albumtitle%" -T "DATE=%year%" -T "TRACKNUMBER=%tracknr%" -T "GENRE=%genre%" -T "COMMENT=%comment%" -T "BAND=%albuminterpret%" -T "ALBUMARTIST=%albuminterpret%" -T "COMPOSER=%composer%" %haslyrics%--tag-from-file=LYRICS="%lyricsfile%"%haslyrics% -T "DISCNUMBER=%cdnumber%" -T "TOTALDISCS=%totalcds%" -T "TOTALTRACKS=%numtracks%" %hascover%--picture="%coverfile%"%hascover% %source% -o %dest%
TOC of the extracted CD
     Track |   Start  |  Length  | Start sector | End sector
    ---------------------------------------------------------
        1  |  0:00.00 |  7:26.11 |         0    |    33460
        2  |  7:26.11 |  6:32.36 |     33461    |    62896
        3  | 13:58.47 |  5:23.07 |     62897    |    87128
        4  | 19:21.54 |  8:01.55 |     87129    |   123258
        5  | 27:23.34 |  6:12.71 |    123259    |   151229
        6  | 33:36.30 |  6:39.27 |    151230    |   181181
        7  | 40:15.57 |  6:52.71 |    181182    |   212152
        8  | 47:08.53 |  7:01.60 |    212153    |   243787
        9  | 54:10.38 |  6:10.56 |    243788    |   271593
       10  | 60:21.19 |  6:01.56 |    271594    |   298724
       11  | 66:23.00 |  8:34.12 |    298725    |   337286
Range status and errors
Selected range
     Filename E:\Torrents\Various Artists - ZYX Italo Disco New Generation Vol. 3 (2013) (2 CD)\Various Artists - ZYX Italo Disco New Generation Vol. 3 CD1.wav
     Peak level 96.5 %
     Extraction speed 3.6 X
     Range quality 99.9 %
     Test CRC 7D3DA7BE
     Copy CRC 7D3DA7BE
     Copy OK
No errors occurred
AccurateRip summary
Track  1  not present in database
Track  2  not present in database
Track  3  not present in database
Track  4  not present in database
Track  5  not present in database
Track  6  not present in database
Track  7  not present in database
Track  8  not present in database
Track  9  not present in database
Track 10  not present in database
Track 11  not present in database
None of the tracks are present in the AccurateRip database
End of status report
==== Log checksum 825B1215647DBCE0980104E95F3DDEDBF7040D7B2BA4ECABB9289C299486935C ====
CD 2
Exact Audio Copy V1.0 beta 3 from 29. August 2011
EAC extraction logfile from 8. November 2013, 23:25
Various Artists / ZYX Italo Disco New Generation Vol. 3 CD 2
Used drive  : SONY    DVD RW DRU-820A   Adapter: 3  ID: 0
Read mode               : Secure
Utilize accurate stream : Yes
Defeat audio cache      : Yes
Make use of C2 pointers : No
Read offset correction                      : 102
Overread into Lead-In and Lead-Out          : No
Fill up missing offset samples with silence : Yes
Delete leading and trailing silent blocks   : No
Null samples used in CRC calculations       : Yes
Used interface                              : Native Win32 interface for Win NT & 2000
Used output format              : User Defined Encoder
Selected bitrate                : 768 kBit/s
Quality                         : High
Add ID3 tag                     : No
Command line compressor         : C:\Program Files\Exact Audio Copy\FLAC\FLAC.EXE
Additional command line options : -6 -V -T "ARTIST=%artist%" -T "TITLE=%title%" -T "ALBUM=%albumtitle%" -T "DATE=%year%" -T "TRACKNUMBER=%tracknr%" -T "GENRE=%genre%" -T "COMMENT=%comment%" -T "BAND=%albuminterpret%" -T "ALBUMARTIST=%albuminterpret%" -T "COMPOSER=%composer%" %haslyrics%--tag-from-file=LYRICS="%lyricsfile%"%haslyrics% -T "DISCNUMBER=%cdnumber%" -T "TOTALDISCS=%totalcds%" -T "TOTALTRACKS=%numtracks%" %hascover%--picture="%coverfile%"%hascover% %source% -o %dest%
TOC of the extracted CD
     Track |   Start  |  Length  | Start sector | End sector
    ---------------------------------------------------------
        1  |  0:00.00 |  6:14.32 |         0    |    28081
        2  |  6:14.32 |  7:29.07 |     28082    |    61763
        3  | 13:43.39 |  5:58.64 |     61764    |    88677
        4  | 19:42.28 |  6:32.28 |     88678    |   118105
        5  | 26:14.56 |  6:38.56 |    118106    |   148011
        6  | 32:53.37 |  5:15.68 |    148012    |   171704
        7  | 38:09.30 |  6:46.42 |    171705    |   202196
        8  | 44:55.72 |  7:48.00 |    202197    |   237296
        9  | 52:43.72 |  6:56.57 |    237297    |   268553
       10  | 59:40.54 |  5:05.56 |    268554    |   291484
       11  | 64:46.35 |  7:39.33 |    291485    |   325942
       12  | 72:25.68 |  4:52.47 |    325943    |   347889
Range status and errors
Selected range
     Filename E:\Torrents\Various Artists - ZYX Italo Disco New Generation Vol. 3 (2013) (2 CD)\Various Artists - ZYX Italo Disco New Generation Vol. 3 CD 2.wav
     Peak level 96.5 %
     Extraction speed 6.9 X
     Range quality 99.9 %
     Test CRC DA3242BA
     Copy CRC DA3242BA
     Copy OK
No errors occurred
AccurateRip summary
Track  1  not present in database
Track  2  not present in database
Track  3  not present in database
Track  4  not present in database
Track  5  not present in database
Track  6  not present in database
Track  7  not present in database
Track  8  not present in database
Track  9  not present in database
Track 10  not present in database
Track 11  not present in database
Track 12  not present in database
None of the tracks are present in the AccurateRip database
End of status report
==== Log checksum C75B0D200B9531D449FBDF9EF1FFF60E52F300CF7C267AB22E770690DF99A3C5 ====

Отчёт auCDtect Task manager&#58;

CD 1
-----------------------
DON'T MODIFY THIS FILE
-----------------------
PERFORMER: auCDtect Task Manager, ver. 1.0.0 Stable build 1.0.0.0
Copyright (c) 2008, 2009 y-soft. All rights reserved
http://y-soft.110mb.com
ANALYZER: auCDtect: CD records authenticity detector, version 0.8.2
Copyright (c) 2004 Oleg Berngardt. All rights reserved.
Copyright (c) 2004 Alexander Djourik. All rights reserved.
FILE: Various Artists - ZYX Italo Disco New Generation Vol. 3 CD1.flac
  Size: 569759535 Hash: 9B3139EFE0D717C8FE9A10FC2363D884 Accuracy: -m0
  Conclusion: CDDA 100%
  Signature: A0FAB29D190AF8A492B2283BBC30D4B15150B8D9
CD 2
-----------------------
DON'T MODIFY THIS FILE
-----------------------
PERFORMER: auCDtect Task Manager, ver. 1.0.0 Stable build 1.0.0.0
Copyright (c) 2008, 2009 y-soft. All rights reserved
http://y-soft.110mb.com
ANALYZER: auCDtect: CD records authenticity detector, version 0.8.2
Copyright (c) 2004 Oleg Berngardt. All rights reserved.
Copyright (c) 2004 Alexander Djourik. All rights reserved.
FILE: Various Artists - ZYX Italo Disco New Generation Vol. 3 CD 2.flac
  Size: 595674245 Hash: 082DC9C4657CCFB09C08F856D7D6BE96 Accuracy: -m0
  Conclusion: CDDA 100%
  Signature: DF39DB7A5B5A3F3C02787F06EC4A2455D147768A

2014 - ZYX Italo Disco New Generation Vol. 4

Label: ZYX Music – ZYX 82724-2
Format: 2хCD, Compilation
Released: 28 Mar 2014
Продолжительность: 02:37:01
Треклиcт:
CD1
01. Amaya - Trapped (Vocal Version) (4:49)
02. Siberian Heart - Don't Stop The Music (Spezial ZYX Maxi Version) (7:50)
03. The Sweeps - The Last Dream (Flashback Remix) (6:58)
04. Mention - Dreams (Vocal Version) (8:08)
05. D.J. Savage - I Bridge New Life (Extended Version) (7:36)
06. Delgado - Summer Of '85 (Maxi Version) (5:50)
07. Neon Game - Crazy Nights (Vocal Version) (4:02)
08. Joey Mauro - Black And White Dreams (Longdrink Remix) (7:46)
09. Time Machine Feat. Albert One - Cold As Ice (Another Version) (7:04)
10. Clueless Feat. Linda Jo Rizzo - Feel The Drive (Vocal Version) (6:00)
11. Ken Laszlo - S.O.S. (Vocal Version) (6:29)
12. Galactic Warriors - Time Travellers (Maxi Version) (5:49)
CD2
01. D. White - All The Story Is History (Extended Version) (7:09)
02. Emy Care - Fly In The Sky (Dance Mix) (7:32)
03. Italon - Italo Disco (Longdrink Remix) (7:09)
04. Boris Zhivago - Russian Girl (Summer Mix) (6:23)
05. Ryan Paris Feat. Franca Morgano - I Wanna Love You Once Again (80s Dance Mix) (7:10)
06. Digitalo - Girl From Russia (Extended Version) (7:06)
07. Brian Ice - Inside My Lonely Nights (Vocal Version) (6:07)
08. Romantic Avenue Feat. Michael Nolen - Dangerous Heart (TDH Driver Longdrink Remix) (8:09)
09. Italove Feat. Ken Laszlo - Disco Queen (Flashback Re-Edit) (6:45)
10. Peter Wilson - Lonely In The Night (Matt Pop Extended Mix) (8:57)
11. Linda Jo Rizzo Feat. Fancy - Stronger Together (Italo Disco Remix) (6:15)

Отчёт ЕАС&#58;

CD 1
Exact Audio Copy V1.0 beta 3 from 29. August 2011
EAC extraction logfile from 1. May 2014, 14:40
Various Artists / ZYX Italo Disco New Generation Vol. 4 CD 1
Used drive  : SONY    DVD RW DRU-820A   Adapter: 3  ID: 0
Read mode               : Secure
Utilize accurate stream : Yes
Defeat audio cache      : Yes
Make use of C2 pointers : No
Read offset correction                      : 102
Overread into Lead-In and Lead-Out          : No
Fill up missing offset samples with silence : Yes
Delete leading and trailing silent blocks   : No
Null samples used in CRC calculations       : Yes
Used interface                              : Native Win32 interface for Win NT & 2000
Used output format              : User Defined Encoder
Selected bitrate                : 768 kBit/s
Quality                         : High
Add ID3 tag                     : No
Command line compressor         : C:\Program Files\Exact Audio Copy\FLAC\FLAC.EXE
Additional command line options : -6 -V -T "ARTIST=%artist%" -T "TITLE=%title%" -T "ALBUM=%albumtitle%" -T "DATE=%year%" -T "TRACKNUMBER=%tracknr%" -T "GENRE=%genre%" -T "COMMENT=%comment%" -T "BAND=%albuminterpret%" -T "ALBUMARTIST=%albuminterpret%" -T "COMPOSER=%composer%" %haslyrics%--tag-from-file=LYRICS="%lyricsfile%"%haslyrics% -T "DISCNUMBER=%cdnumber%" -T "TOTALDISCS=%totalcds%" -T "TOTALTRACKS=%numtracks%" %hascover%--picture="%coverfile%"%hascover% %source% -o %dest%
TOC of the extracted CD
     Track |   Start  |  Length  | Start sector | End sector
    ---------------------------------------------------------
        1  |  0:00.00 |  4:48.47 |         0    |    21646
        2  |  4:48.47 |  7:50.32 |     21647    |    56928
        3  | 12:39.04 |  6:58.26 |     56929    |    88304
        4  | 19:37.30 |  8:08.31 |     88305    |   124935
        5  | 27:45.61 |  7:35.54 |    124936    |   159114
        6  | 35:21.40 |  5:49.50 |    159115    |   185339
        7  | 41:11.15 |  4:01.41 |    185340    |   203455
        8  | 45:12.56 |  7:46.35 |    203456    |   238440
        9  | 52:59.16 |  7:03.49 |    238441    |   270214
       10  | 60:02.65 |  5:59.46 |    270215    |   297185
       11  | 66:02.36 |  6:29.19 |    297186    |   326379
       12  | 72:31.55 |  5:49.05 |    326380    |   352559
Range status and errors
Selected range
     Filename E:\Torrents\Various Artists - ZYX Italo Disco New Generation Vol.1-4\Various Artists - ZYX Italo Disco New Generation Vol.4 (2014)\CD 1\Various Artists - ZYX Italo Disco New Generation Vol. 4 CD 1.wav
     Peak level 98.8 %
     Extraction speed 6.1 X
     Range quality 99.9 %
     Test CRC 89DBA8F5
     Copy CRC 89DBA8F5
     Copy OK
No errors occurred
AccurateRip summary
Track  1  not present in database
Track  2  not present in database
Track  3  not present in database
Track  4  not present in database
Track  5  not present in database
Track  6  not present in database
Track  7  not present in database
Track  8  not present in database
Track  9  not present in database
Track 10  not present in database
Track 11  not present in database
Track 12  not present in database
None of the tracks are present in the AccurateRip database
End of status report
==== Log checksum 6BFE26E11D477DC7ACD690EFEEFAE5CDA143FD800EA08D87D75F3138B8AF7797 ====
CD 2
Exact Audio Copy V1.0 beta 3 from 29. August 2011
EAC extraction logfile from 1. May 2014, 15:26
Various Artists / Italo Disco New Generation Vol. 4 CD 2
Used drive  : SONY    DVD RW DRU-820A   Adapter: 3  ID: 0
Read mode               : Secure
Utilize accurate stream : Yes
Defeat audio cache      : Yes
Make use of C2 pointers : No
Read offset correction                      : 102
Overread into Lead-In and Lead-Out          : No
Fill up missing offset samples with silence : Yes
Delete leading and trailing silent blocks   : No
Null samples used in CRC calculations       : Yes
Used interface                              : Native Win32 interface for Win NT & 2000
Used output format              : User Defined Encoder
Selected bitrate                : 768 kBit/s
Quality                         : High
Add ID3 tag                     : No
Command line compressor         : C:\Program Files\Exact Audio Copy\FLAC\FLAC.EXE
Additional command line options : -6 -V -T "ARTIST=%artist%" -T "TITLE=%title%" -T "ALBUM=%albumtitle%" -T "DATE=%year%" -T "TRACKNUMBER=%tracknr%" -T "GENRE=%genre%" -T "COMMENT=%comment%" -T "BAND=%albuminterpret%" -T "ALBUMARTIST=%albuminterpret%" -T "COMPOSER=%composer%" %haslyrics%--tag-from-file=LYRICS="%lyricsfile%"%haslyrics% -T "DISCNUMBER=%cdnumber%" -T "TOTALDISCS=%totalcds%" -T "TOTALTRACKS=%numtracks%" %hascover%--picture="%coverfile%"%hascover% %source% -o %dest%
TOC of the extracted CD
     Track |   Start  |  Length  | Start sector | End sector
    ---------------------------------------------------------
        1  |  0:00.00 |  7:08.70 |         0    |    32169
        2  |  7:08.70 |  7:32.05 |     32170    |    66074
        3  | 14:41.00 |  7:09.19 |     66075    |    98268
        4  | 21:50.19 |  6:22.62 |     98269    |   126980
        5  | 28:13.06 |  7:09.65 |    126981    |   159220
        6  | 35:22.71 |  7:06.04 |    159221    |   191174
        7  | 42:29.00 |  6:06.49 |    191175    |   218673
        8  | 48:35.49 |  8:08.52 |    218674    |   255325
        9  | 56:44.26 |  6:44.52 |    255326    |   285677
       10  | 63:29.03 |  8:56.65 |    285678    |   325942
       11  | 72:25.68 |  6:15.08 |    325943    |   354075
Range status and errors
Selected range
     Filename E:\Torrents\Various Artists - ZYX Italo Disco New Generation Vol.1-4\Various Artists - ZYX Italo Disco New Generation Vol.4 (2014)\CD 2\Various Artists - Italo Disco New Generation Vol. 4 CD 2.wav
     Peak level 98.8 %
     Extraction speed 7.3 X
     Range quality 100.0 %
     Test CRC 9A710344
     Copy CRC 9A710344
     Copy OK
No errors occurred
AccurateRip summary
Track  1  not present in database
Track  2  not present in database
Track  3  not present in database
Track  4  not present in database
Track  5  not present in database
Track  6  not present in database
Track  7  not present in database
Track  8  not present in database
Track  9  not present in database
Track 10  not present in database
Track 11  not present in database
None of the tracks are present in the AccurateRip database
End of status report
==== Log checksum 6E24738F1AC74F0E097421B721F1089F37B8489A4C1FBAD771A5046D131FC8FC ====

Отчёт auCDtect Task manager&#58;

CD 1
-----------------------
DON'T MODIFY THIS FILE
-----------------------
PERFORMER: auCDtect Task Manager, ver. 1.0.0 Stable build 1.0.0.0
Copyright (c) 2008, 2009 y-soft. All rights reserved
http://y-soft.110mb.com
ANALYZER: auCDtect: CD records authenticity detector, version 0.8.2
Copyright (c) 2004 Oleg Berngardt. All rights reserved.
Copyright (c) 2004 Alexander Djourik. All rights reserved.
FILE: Various Artists - ZYX Italo Disco New Generation Vol. 4 CD 1.flac
  Size: 587538483 Hash: 11D5A2DB31BA37D0A2101DAB206C20A2 Accuracy: -m0
  Conclusion: CDDA 100%
  Signature: A9D09E4BA1FEFAE8A189DDADF874305EEC924BCB
CD 2
-----------------------
DON'T MODIFY THIS FILE
-----------------------
PERFORMER: auCDtect Task Manager, ver. 1.0.0 Stable build 1.0.0.0
Copyright (c) 2008, 2009 y-soft. All rights reserved
http://y-soft.110mb.com
ANALYZER: auCDtect: CD records authenticity detector, version 0.8.2
Copyright (c) 2004 Oleg Berngardt. All rights reserved.
Copyright (c) 2004 Alexander Djourik. All rights reserved.
FILE: Various Artists - Italo Disco New Generation Vol. 4 CD 2.flac
  Size: 598534823 Hash: C6928C3250FA9D5D0992BF4066E98C89 Accuracy: -m0
  Conclusion: CDDA 100%
  Signature: EB44B8ACDEA36F8C9D6F1F43250D7A02F0178FDB

2014 - ZYX Italo Disco New Generation Vol. 5

Label: ZYX Music – ZYX 82762-2
Format: 2хCD, Compilation
Released: 12 Sep 2014
Продолжительность: 02:24:36
Треклиcт:
CD1
01. Miko Mission - Universal Feeling (Vocal Version) [05:56]
02. Boris Zhivago - Love In Russia (ZYX Extended Mix) [07:19]
03. Siberian Heat - Pick Up The Phone (ZYX Summer Mix) [07:22]
04. TQ Feat. Ken Laszlo & Fred Ventura - In The Night (Extended) [06:45]
05. Aldo Lesina - Goodbye (Extended Power Mix) [07:21]
06. [email protected] Feat. Mode-One - My Love In Your Heart (Disco Version) [05:31]
07. Raf Coney - I See You Later (Vocal Version) [07:29]
08. Fred Ventura - Don't Give Up (Italo Connection Remix) [05:22]
09. The Sweeps - Voices (Extended Version) [04:52]
10. Casanova - I Love You (Long Mix) [06:35]
11. Linda Jo Rizzo - USSR (ZYX Italo Mix) [05:54]
CD2
01. Modern Boots - Tears Of A Broken Heart (Extended Version) [07:38]
02. Helicon - The Net (Vocal Version) [06:50]
03. Estimado - Yes You One (Long Version) [08:31]
04. Jaco - Hey Operator (Rum Version) [06:24]
05. D.White - No Connect (Long Version) [07:03]
06. Amaya - New Ways [05:09]
07. Linda Jo Rizzo Feat. Ryan Paris - All Around (80s Mix Long Version) [05:27]
08. Dean Corporation - App Me (Italo Dance Mix) [05:42]
09. Digitalo - Digitalo (Extended Version) [07:06]
10. Laserdance - Cosmic Energy (Space Version) [07:36]
11. Tiziana Rivale - Just Hold Me Tight (Soft Version) [06:32]

Отчёт ЕАС&#58;

CD 1
Exact Audio Copy V1.0 beta 6 from 9. April 2015
Отчёт EAC об извлечении, выполненном 23. мая 2015, 8:24
Various Artists / ZYX Italo Disco New Generation 5 (CD1)
Дисковод: PIONEER BD-RW   BDR-206   Adapter: 1  ID: 1
Режим чтения                 : Достоверность
Использование точного потока : Да
Отключение кэша аудио        : Да
Использование указателей C2  : Нет
Коррекция смещения при чтении                     : 667
Способность читать области Lead-in и Lead-out     : Нет
Заполнение пропущенных сэмплов тишиной            : Да
Удаление блоков с тишиной в начале и конце        : Нет
При вычислениях CRC использовались нулевые сэмплы : Да
Интерфейс                                         : Встроенный Win32-интерфейс для Win NT/2000
Выходной формат          : Пользовательский кодировщик
Выбранный битрейт        : 1024 kBit/s
Качество                 : Высокий
Добавление ID3-тега      : Нет
Утилита сжатия           : C:\Program Files (x86)\Exact Audio Copy\FLAC\FLAC.EXE
Дополнительные параметры : -T "COMMENT=Ripped by SergeyJD"-8 -V -T "ARTIST=%artist%" -T "TITLE=%title%" -T "ALBUM=%albumtitle%" -T "DATE=%year%" -T "TRACKNUMBER=%tracknr%" -T "GENRE=%genre%" -T "COMMENT=%comment%" -T "BAND=%albuminterpret%" -T "ALBUMARTIST=%albuminterpret%" -T "COMPOSER=%composer%" %haslyrics%--tag-from-file=LYRICS="%lyricsfile%"%haslyrics% -T "DISCNUMBER=%cdnumber%" -T "TOTALDISCS=%totalcds%" -T "TOTALTRACKS=%numtracks%" %hascover%--picture="%coverfile%"%hascover% %source% -o %dest%
TOC извлечённого CD
     Трек |   Старт  | Длительность | Начальный сектор | Конечный сектор
    ---------------------------------------------------------------------
       1  |  0:00.00 |    5:56.45   |           0      |      26744
       2  |  5:56.45 |    7:19.20   |       26745      |      59689
       3  | 13:15.65 |    7:22.51   |       59690      |      92890
       4  | 20:38.41 |    6:45.14   |       92891      |     123279
       5  | 27:23.55 |    7:21.69   |      123280      |     156423
       6  | 34:45.49 |    5:31.54   |      156424      |     181302
       7  | 40:17.28 |    7:29.27   |      181303      |     215004
       8  | 47:46.55 |    5:22.63   |      215005      |     239217
       9  | 53:09.43 |    4:52.44   |      239218      |     261161
      10  | 58:02.12 |    6:35.54   |      261162      |     290840
      11  | 64:37.66 |    5:54.15   |      290841      |     317405
Характеристики диапазона извлечения и сообщения об ошибках
Выбранный диапазон
     Имя файла D:\РАЗДАЧИ!!!!\VA - ZYX Italo Disco New Generation 5 (2CD ZYX 82762-2) - 2014\Disc 1\Various Artists - ZYX Italo Disco New Generation 5 (CD1).wav
     Пиковый уровень 96.6 %
     Скорость извлечения 8.2 X
     Качество диапазона 100.0 %
     CRC теста D06E5BA0
     CRC копии D06E5BA0
     Копирование... OK
Ошибок не произошло
AccurateRip: сводка
Трек  1  : извлечено точно (доверие 1)  [DB1591E0]  (AR v2)
Трек  2  : извлечено точно (доверие 1)  [C473FA2B]  (AR v2)
Трек  3  : извлечено точно (доверие 1)  [A2F9CF90]  (AR v2)
Трек  4  : извлечено точно (доверие 1)  [A1C51B98]  (AR v2)
Трек  5  : извлечено точно (доверие 1)  [0E3A6468]  (AR v2)
Трек  6  : извлечено точно (доверие 1)  [8FB62B2F]  (AR v2)
Трек  7  : извлечено точно (доверие 1)  [AF4680A3]  (AR v2)
Трек  8  : извлечено точно (доверие 1)  [688EDB32]  (AR v2)
Трек  9  : извлечено точно (доверие 1)  [E6D128BA]  (AR v2)
Трек 10  : извлечено точно (доверие 1)  [F0F92EF6]  (AR v2)
Трек 11  : извлечено точно (доверие 1)  [04EB4FBD]  (AR v2)
Все треки извлечены точно
Конец отчёта
---- CUETools DB Plugin V2.1.6
[CTDB TOCID: QhTt9O9EGQuVeSFSsXj_efbuTt4-] found
Submit result: QhTt9O9EGQuVeSFSsXj_efbuTt4- has been confirmed
Track | CTDB Status
  1   | (4/4) Accurately ripped
  2   | (4/4) Accurately ripped
  3   | (4/4) Accurately ripped
  4   | (4/4) Accurately ripped
  5   | (4/4) Accurately ripped
  6   | (4/4) Accurately ripped
  7   | (4/4) Accurately ripped
  8   | (4/4) Accurately ripped
  9   | (4/4) Accurately ripped
10   | (4/4) Accurately ripped
11   | (4/4) Accurately ripped
==== Контрольная сумма отчёта E161C6091334B7C6870349837594F16D01502B011B62AE016AFD57525E192B7C ====
CD 2
Exact Audio Copy V1.0 beta 6 from 9. April 2015
Отчёт EAC об извлечении, выполненном 23. мая 2015, 8:55
Various Artists / ZYX Italo Disco New Generation 5 (CD 2)
Дисковод: PIONEER BD-RW   BDR-206   Adapter: 1  ID: 1
Режим чтения                 : Достоверность
Использование точного потока : Да
Отключение кэша аудио        : Да
Использование указателей C2  : Нет
Коррекция смещения при чтении                     : 667
Способность читать области Lead-in и Lead-out     : Нет
Заполнение пропущенных сэмплов тишиной            : Да
Удаление блоков с тишиной в начале и конце        : Нет
При вычислениях CRC использовались нулевые сэмплы : Да
Интерфейс                                         : Встроенный Win32-интерфейс для Win NT/2000
Выходной формат          : Пользовательский кодировщик
Выбранный битрейт        : 1024 kBit/s
Качество                 : Высокий
Добавление ID3-тега      : Нет
Утилита сжатия           : C:\Program Files (x86)\Exact Audio Copy\FLAC\FLAC.EXE
Дополнительные параметры : -T "COMMENT=Ripped by SergeyJD"-8 -V -T "ARTIST=%artist%" -T "TITLE=%title%" -T "ALBUM=%albumtitle%" -T "DATE=%year%" -T "TRACKNUMBER=%tracknr%" -T "GENRE=%genre%" -T "COMMENT=%comment%" -T "BAND=%albuminterpret%" -T "ALBUMARTIST=%albuminterpret%" -T "COMPOSER=%composer%" %haslyrics%--tag-from-file=LYRICS="%lyricsfile%"%haslyrics% -T "DISCNUMBER=%cdnumber%" -T "TOTALDISCS=%totalcds%" -T "TOTALTRACKS=%numtracks%" %hascover%--picture="%coverfile%"%hascover% %source% -o %dest%
TOC извлечённого CD
     Трек |   Старт  | Длительность | Начальный сектор | Конечный сектор
    ---------------------------------------------------------------------
       1  |  0:00.00 |    7:38.54   |           0      |      34403
       2  |  7:38.54 |    6:50.73   |       34404      |      65226
       3  | 14:29.52 |    8:31.17   |       65227      |     103568
       4  | 23:00.69 |    6:24.34   |      103569      |     132402
       5  | 29:25.28 |    7:03.45   |      132403      |     164172
       6  | 36:28.73 |    5:09.69   |      164173      |     187416
       7  | 41:38.67 |    5:27.30   |      187417      |     211971
       8  | 47:06.22 |    5:42.35   |      211972      |     237656
       9  | 52:48.57 |    7:06.73   |      237657      |     269679
      10  | 59:55.55 |    7:36.45   |      269680      |     303924
      11  | 67:32.25 |    6:32.12   |      303925      |     333336
Характеристики диапазона извлечения и сообщения об ошибках
Выбранный диапазон
     Имя файла D:\РАЗДАЧИ!!!!\VA - ZYX Italo Disco New Generation 5 (2CD ZYX 82762-2) - 2014\Disc 2\Various Artists - ZYX Italo Disco New Generation 5 (CD 2).wav
     Пиковый уровень 96.6 %
     Скорость извлечения 8.3 X
     Качество диапазона 99.9 %
     CRC теста EBF70D03
     CRC копии EBF70D03
     Копирование... OK
Ошибок не произошло
AccurateRip: сводка
Трек  1  : извлечено точно (доверие 1)  [5E4358DD]  (AR v2)
Трек  2  : извлечено точно (доверие 1)  [C627E68F]  (AR v2)
Трек  3  : извлечено точно (доверие 1)  [450F65C4]  (AR v2)
Трек  4  : извлечено точно (доверие 1)  [77E08DF4]  (AR v2)
Трек  5  : извлечено точно (доверие 1)  [C77DE2D5]  (AR v2)
Трек  6  : извлечено точно (доверие 1)  [CBAE0A5D]  (AR v2)
Трек  7  : извлечено точно (доверие 1)  [09FA7CEA]  (AR v2)
Трек  8  : извлечено точно (доверие 1)  [9F830AF3]  (AR v2)
Трек  9  : извлечено точно (доверие 1)  [3997553E]  (AR v2)
Трек 10  : извлечено точно (доверие 1)  [D1A8747D]  (AR v2)
Трек 11  : извлечено точно (доверие 1)  [54AAFB01]  (AR v2)
Все треки извлечены точно
Конец отчёта
---- CUETools DB Plugin V2.1.6
[CTDB TOCID: 6coG7hkrDePW1ykHKbot7KcuJOs-] found
Submit result: 6coG7hkrDePW1ykHKbot7KcuJOs- has been confirmed
Track | CTDB Status
  1   | (3/3) Accurately ripped
  2   | (3/3) Accurately ripped
  3   | (3/3) Accurately ripped
  4   | (3/3) Accurately ripped
  5   | (3/3) Accurately ripped
  6   | (3/3) Accurately ripped
  7   | (3/3) Accurately ripped
  8   | (3/3) Accurately ripped
  9   | (3/3) Accurately ripped
10   | (3/3) Accurately ripped
11   | (3/3) Accurately ripped
==== Контрольная сумма отчёта 648C5B5EF32492CFAA449B90300E237BAEA386CBF4964EA599C72FE7B1F4DA39 ====

Отчёт auCDtect Task manager&#58;

CD 1
-----------------------
DON'T MODIFY THIS FILE
-----------------------
PERFORMER: auCDtect Task Manager, ver. 1.6.0 RC1 build 1.6.0.1
Copyright (c) 2008-2010 y-soft. All rights reserved
http://y-soft.org
ANALYZER: auCDtect: CD records authenticity detector, version 0.8.2
Copyright (c) 2004 Oleg Berngardt. All rights reserved.
Copyright (c) 2004 Alexander Djourik. All rights reserved.
FILE: Various Artists - ZYX Italo Disco New Generation 5 (CD1).flac
  Size: 537986642 Hash: D63712D68EA5C543E8B13C1F6836EA85 Accuracy: -m0
  Conclusion: CDDA 100%
  Signature: D13D29B5573160DD700A58271B5CFDEBA52DC8C8
CD 2
-----------------------
DON'T MODIFY THIS FILE
-----------------------
PERFORMER: auCDtect Task Manager, ver. 1.6.0 RC1 build 1.6.0.1
Copyright (c) 2008-2010 y-soft. All rights reserved
http://y-soft.org
ANALYZER: auCDtect: CD records authenticity detector, version 0.8.2
Copyright (c) 2004 Oleg Berngardt. All rights reserved.
Copyright (c) 2004 Alexander Djourik. All rights reserved.
FILE: Various Artists - ZYX Italo Disco New Generation 5 (CD 2).flac
  Size: 566088502 Hash: 47BF48E6D23275ACAD8A29D77FDDD75E Accuracy: -m0
  Conclusion: CDDA 100%
  Signature: 6FC81B586E7BC75FAD8DE0906295964EF788ADC2

2015 - ZYX Italo Disco New Generation Vol. 6

Label: ZYX Music – ZYX 82796-2
Format: 2хCD, Compilation
Released: 20 Mar 2015
Продолжительность: 02:33:52
Треклиcт:
CD1
01. Talking Eyes - The Summer Goes (extended version) [04:54]
02. M-Tracking - Give Me Your Hand (maxi version) [07:15]
03. Clock on 5 - Love Kills (The Mayerling, Part 2) [05:45]
04. Digitalo - Love Me Endlessly (extended version) [06:58]
05. Mirko Hirsch feat. Elen Cora - Mr Hyde (extended version) [06:26]
06. Joey Mauro presents Fred Ventura - You and I (vocal version) [05:12]
07. TQ feat. John Sauli - Leave It All Behind (extended version) [05:41]
08. Dyva - Unbelievable (extended version) [08:09]
09. Cristina Manzano - Stay With Me (extended version) [05:47]
10. Amaya - Car Crash (extended version) [05:31]
11. Ken Martina - A Simple Story (extended love mix) [08:21]
12. The Sweeps - Came True [05:31]
CD2
01. 23RS Underpass - The Boy Within (Special ZYX Version) [07:52]
02. Siberian Heat - Shadows (ZYX Long Mix) [06:39]
03. Rago - Rusty Wings (Vocal Version) [05:14]
04. Fred Ventura - Believe Me (Extended Version) [05:33]
05. Heaven42 - Saturday Night [06:47]
06. Synthgo - Sei La Mia Vita [07:00]
07. Aldo Lesina - Leave My Mind (Extended Mix) [07:42]
08. Remo Zito - Secret Agent (Vocal Version) [05:45]
09. Peter Wilson - Pulsation (Tom Garrow 12'' Remix) [06:44]
10. Birizdo I Am - Love Paradise (Extended Version) [04:49]
11. Linda Jo Rizzo - Only One Night [07:36]
12. Phalanx - Modern Hero (Extended Mix) [06:33]

Отчёт ЕАС&#58;

CD 1
Exact Audio Copy V1.1 from 23. June 2015
Отчёт EAC об извлечении, выполненном 25. июля 2015, 22:36
Various / ZYX Italo Disco New Generation Volume 6 (CD1, ZYX 82796-2)
Дисковод: PIONEER BD-RW   BDR-206   Adapter: 1  ID: 1
Режим чтения                 : Достоверность
Использование точного потока : Да
Отключение кэша аудио        : Да
Использование указателей C2  : Нет
Коррекция смещения при чтении                     : 667
Способность читать области Lead-in и Lead-out     : Нет
Заполнение пропущенных сэмплов тишиной            : Да
Удаление блоков с тишиной в начале и конце        : Нет
При вычислениях CRC использовались нулевые сэмплы : Да
Интерфейс                                         : Встроенный Win32-интерфейс для Win NT/2000
Выходной формат          : Пользовательский кодировщик
Выбранный битрейт        : 1024 kBit/s
Качество                 : Высокий
Добавление ID3-тега      : Нет
Утилита сжатия           : C:\Program Files (x86)\Exact Audio Copy\FLAC\FLAC.EXE
Дополнительные параметры : -T "COMMENT=Ripped by SergeyJD"-8 -V -T "ARTIST=%artist%" -T "TITLE=%title%" -T "ALBUM=%albumtitle%" -T "DATE=%year%" -T "TRACKNUMBER=%tracknr%" -T "GENRE=%genre%" -T "COMMENT=%comment%" -T "BAND=%albuminterpret%" -T "ALBUMARTIST=%albuminterpret%" -T "COMPOSER=%composer%" %haslyrics%--tag-from-file=LYRICS="%lyricsfile%"%haslyrics% -T "DISCNUMBER=%cdnumber%" -T "TOTALDISCS=%totalcds%" -T "TOTALTRACKS=%numtracks%" %hascover%--picture="%coverfile%"%hascover% %source% -o %dest%
TOC извлечённого CD
     Трек |   Старт  | Длительность | Начальный сектор | Конечный сектор
    ---------------------------------------------------------------------
       1  |  0:00.00 |    4:53.34   |           0      |      22008
       2  |  4:53.34 |    7:14.16   |       22009      |      54574
       3  | 12:07.50 |    5:44.56   |       54575      |      80430
       4  | 17:52.31 |    6:57.28   |       80431      |     111733
       5  | 24:49.59 |    6:25.18   |      111734      |     140626
       6  | 31:15.02 |    5:11.22   |      140627      |     163973
       7  | 36:26.24 |    5:40.55   |      163974      |     189528
       8  | 42:07.04 |    8:08.08   |      189529      |     226136
       9  | 50:15.12 |    5:46.15   |      226137      |     252101
      10  | 56:01.27 |    5:30.14   |      252102      |     276865
      11  | 61:31.41 |    8:20.55   |      276866      |     314420
      12  | 69:52.21 |    5:30.15   |      314421      |     339185
Характеристики диапазона извлечения и сообщения об ошибках
Выбранный диапазон
     Имя файла D:\РАЗДАЧИ!!!!\VA - ZYX Italo Disco New Generation 6 (2CD, ZYX 82796-2) - 2015\Disc 1\Various - ZYX Italo Disco New Generation Volume 6 (CD1, ZYX 82796-2).wav
     Пиковый уровень 96.6 %
     Скорость извлечения 5.0 X
     Качество диапазона 99.9 %
     CRC теста ED9CC2D3
     CRC копии ED9CC2D3
     Копирование... OK
Ошибок не произошло
AccurateRip: сводка
Трек  1  точность не определена (достоверность 2)  [C4D4B04C], AccurateRip вернул [AD53213F]  (AR v2)
Трек  2  точность не определена (достоверность 2)  [69647DE4], AccurateRip вернул [E7385D72]  (AR v2)
Трек  3  точность не определена (достоверность 2)  [84073F98], AccurateRip вернул [A210705A]  (AR v2)
Трек  4  точность не определена (достоверность 2)  [4868521E], AccurateRip вернул [7EBE1174]  (AR v2)
Трек  5  точность не определена (достоверность 2)  [DF7A8770], AccurateRip вернул [6DAB87C6]  (AR v2)
Трек  6  точность не определена (достоверность 2)  [C4011C70], AccurateRip вернул [139760FA]  (AR v2)
Трек  7  точность не определена (достоверность 2)  [9D01A520], AccurateRip вернул [2F67AD5A]  (AR v2)
Трек  8  точность не определена (достоверность 2)  [D2F26E9E], AccurateRip вернул [D6D52121]  (AR v2)
Трек  9  точность не определена (достоверность 2)  [297F986A], AccurateRip вернул [E75A8DD6]  (AR v2)
Трек 10  точность не определена (достоверность 2)  [14333255], AccurateRip вернул [4DB5029E]  (AR v2)
Трек 11  точность не определена (достоверность 2)  [DAA7E98D], AccurateRip вернул [75D98CA6]  (AR v2)
Трек 12  точность не определена (достоверность 2)  [9B2B08BF], AccurateRip вернул [73565C57]  (AR v2)
Ни один трек не прошёл проверки на точность
В вашей базе может быть иной вариант штамповки диска
Конец отчёта
---- CUETools DB Plugin V2.1.6
[CTDB TOCID: R19kbp24FCECyxK00MsEIjBtMQU-] found
Submit result: R19kbp24FCECyxK00MsEIjBtMQU- has been uploaded
Track | CTDB Status
  1   | (1/1) Accurately ripped
  2   | (1/1) Accurately ripped
  3   | (1/1) Accurately ripped
  4   | (1/1) Accurately ripped
  5   | (1/1) Accurately ripped
  6   | (1/1) Accurately ripped
  7   | (1/1) Accurately ripped
  8   | (1/1) Accurately ripped
  9   | (1/1) Accurately ripped
10   | (1/1) Accurately ripped
11   | (0/1) No match
12   | (1/1) Accurately ripped
==== Контрольная сумма отчёта B9823EC719E65A29F75F2F12084723B27969E9E9A9862388DC350382E20068B4 ====
CD 2
Exact Audio Copy V1.1 from 23. June 2015
Отчёт EAC об извлечении, выполненном 26. июля 2015, 0:18
Various / ZYX Italo Disco New Generation Volume 6 (CD2, ZYX 82796-2)
Дисковод: PIONEER BD-RW   BDR-206   Adapter: 1  ID: 1
Режим чтения                 : Достоверность
Использование точного потока : Да
Отключение кэша аудио        : Да
Использование указателей C2  : Нет
Коррекция смещения при чтении                     : 667
Способность читать области Lead-in и Lead-out     : Нет
Заполнение пропущенных сэмплов тишиной            : Да
Удаление блоков с тишиной в начале и конце        : Нет
При вычислениях CRC использовались нулевые сэмплы : Да
Интерфейс                                         : Встроенный Win32-интерфейс для Win NT/2000
Выходной формат          : Пользовательский кодировщик
Выбранный битрейт        : 1024 kBit/s
Качество                 : Высокий
Добавление ID3-тега      : Нет
Утилита сжатия           : C:\Program Files (x86)\Exact Audio Copy\FLAC\FLAC.EXE
Дополнительные параметры : -T "COMMENT=Ripped by SergeyJD"-8 -V -T "ARTIST=%artist%" -T "TITLE=%title%" -T "ALBUM=%albumtitle%" -T "DATE=%year%" -T "TRACKNUMBER=%tracknr%" -T "GENRE=%genre%" -T "COMMENT=%comment%" -T "BAND=%albuminterpret%" -T "ALBUMARTIST=%albuminterpret%" -T "COMPOSER=%composer%" %haslyrics%--tag-from-file=LYRICS="%lyricsfile%"%haslyrics% -T "DISCNUMBER=%cdnumber%" -T "TOTALDISCS=%totalcds%" -T "TOTALTRACKS=%numtracks%" %hascover%--picture="%coverfile%"%hascover% %source% -o %dest%
TOC извлечённого CD
     Трек |   Старт  | Длительность | Начальный сектор | Конечный сектор
    ---------------------------------------------------------------------
       1  |  0:00.00 |    7:51.61   |           0      |      35385
       2  |  7:51.61 |    6:38.42   |       35386      |      65277
       3  | 14:30.28 |    5:13.48   |       65278      |      88800
       4  | 19:44.01 |    5:52.32   |       88801      |     115232
       5  | 25:36.33 |    6:46.49   |      115233      |     145731
       6  | 32:23.07 |    6:59.24   |      145732      |     177180
       7  | 39:22.31 |    7:41.50   |      177181      |     211805
       8  | 47:04.06 |    5:44.53   |      211806      |     237658
       9  | 52:48.59 |    6:43.45   |      237659      |     267928
      10  | 59:32.29 |    4:48.70   |      267929      |     289598
      11  | 64:21.24 |    7:35.35   |      289599      |     323758
      12  | 71:56.59 |    6:32.35   |      323759      |     353193
Характеристики диапазона извлечения и сообщения об ошибках
Выбранный диапазон
     Имя файла D:\РАЗДАЧИ!!!!\VA - ZYX Italo Disco New Generation 6 (2CD, ZYX 82796-2) - 2015\Disc 2\Various - ZYX Italo Disco New Generation Volume 6 (CD2, ZYX 82796-2).wav
     Пиковый уровень 96.6 %
     Скорость извлечения 2.1 X
     Качество диапазона 100.0 %
     CRC теста 5E4CE5F2
     CRC копии 5E4CE5F2
     Копирование... OK
Ошибок не произошло
AccurateRip: сводка
Трек  1  точность не определена (достоверность 2)  [F0C3E5B4], AccurateRip вернул [28E1CE53]  (AR v2)
Трек  2  точность не определена (достоверность 2)  [C190CDCA], AccurateRip вернул [908BBAC2]  (AR v2)
Трек  3  точность не определена (достоверность 2)  [8FD0A813], AccurateRip вернул [2CB4388C]  (AR v2)
Трек  4  точность не определена (достоверность 2)  [D0A50BA1], AccurateRip вернул [0A1983AE]  (AR v2)
Трек  5  точность не определена (достоверность 2)  [4FB866A9], AccurateRip вернул [C6C2A636]  (AR v2)
Трек  6  точность не определена (достоверность 2)  [F6AE3304], AccurateRip вернул [A59ACC4B]  (AR v2)
Трек  7  точность не определена (достоверность 2)  [43566FC4], AccurateRip вернул [2CD88EB2]  (AR v2)
Трек  8  точность не определена (достоверность 2)  [2F76BFCD], AccurateRip вернул [B5AB668C]  (AR v2)
Трек  9  точность не определена (достоверность 2)  [C509010B], AccurateRip вернул [8A8C44E2]  (AR v2)
Трек 10  точность не определена (достоверность 2)  [95BCF128], AccurateRip вернул [C6BE2955]  (AR v2)
Трек 11  точность не определена (достоверность 2)  [D0621850], AccurateRip вернул [43BC5A3E]  (AR v2)
Трек 12  точность не определена (достоверность 2)  [26C748B8], AccurateRip вернул [B6C2158F]  (AR v2)
Ни один трек не прошёл проверки на точность
В вашей базе может быть иной вариант штамповки диска
Конец отчёта
---- CUETools DB Plugin V2.1.6
[CTDB TOCID: to.8P_vAzfIWFVwmcjsCkfs2Qxs-] found
Submit result: to.8P_vAzfIWFVwmcjsCkfs2Qxs- has been confirmed
Track | CTDB Status
  1   | (2/2) Accurately ripped
  2   | (2/2) Accurately ripped
  3   | (2/2) Accurately ripped
  4   | (2/2) Accurately ripped
  5   | (2/2) Accurately ripped
  6   | (2/2) Accurately ripped
  7   | (2/2) Accurately ripped
  8   | (2/2) Accurately ripped
  9   | (2/2) Accurately ripped
10   | (2/2) Accurately ripped
11   | (2/2) Accurately ripped
12   | (2/2) Accurately ripped
==== Контрольная сумма отчёта 902D8EF0FCA09404D73FF27E475CF61579165CF7C6A40EDD716A41ADBFAADDEE ====

Отчёт auCDtect Task manager&#58;

CD 1
-----------------------
DON'T MODIFY THIS FILE
-----------------------
PERFORMER: auCDtect Task Manager, ver. 1.6.0 RC1 build 1.6.0.1
Copyright (c) 2008-2010 y-soft. All rights reserved
http://y-soft.org
ANALYZER: auCDtect: CD records authenticity detector, version 0.8.2
Copyright (c) 2004 Oleg Berngardt. All rights reserved.
Copyright (c) 2004 Alexander Djourik. All rights reserved.
FILE: Various - ZYX Italo Disco New Generation Volume 6 (CD1, ZYX 82796-2).flac
  Size: 562706506 Hash: 2178A31D172ED2D514A6FFD76CA3AE1A Accuracy: -m0
  Conclusion: CDDA 100%
  Signature: B88F7877A114B68AF43A2B2D9ACB21954E8D8000
CD 2
-----------------------
DON'T MODIFY THIS FILE
-----------------------
PERFORMER: auCDtect Task Manager, ver. 1.6.0 RC1 build 1.6.0.1
Copyright (c) 2008-2010 y-soft. All rights reserved
http://y-soft.org
ANALYZER: auCDtect: CD records authenticity detector, version 0.8.2
Copyright (c) 2004 Oleg Berngardt. All rights reserved.
Copyright (c) 2004 Alexander Djourik. All rights reserved.
FILE: Various - ZYX Italo Disco New Generation Volume 6 (CD2, ZYX 82796-2).flac
  Size: 592002745 Hash: D4EB5D65F5A23BB5B055CF235CAC95F0 Accuracy: -m0
  Conclusion: CDDA 100%
  Signature: 34AF82D7F5E728636095E0D6C3771D1AE7307795
Яндекс.Метрика
Рейтинг@Mail.ru