Беглец / The Runner (Остин Старк) [2015, Драма, HDRip] [OMSKBIRD records & PARADOX]

 

Создавать темы 23-Авг-2015 20:17

Информация о фильме
Название: Беглец
Оригинальное название: The Runner
Год выхода: 2015
Жанр: Драма
Режиссер: Остин Старк
В ролях: Николас Кейдж, Сара Полсон, Конни Нильсен, Уенделл Пирс, Брайан Бэтт, Питер Фонда, Лара Грайс, Дэна Гурье, Ванета Уолмсли, Фредрик Лене
О фильме:
Конгрессмен Колин Прайс безумно увлечен двумя вещами: политикой и женщинами. После аварии на нефтяной платформе его жизнь полностью меняется. Камеры наблюдения ловят его с темнокожей Люси, женой одного из пострадавших в аварии. Разразившийся сексуальный скандал ставит под угрозу не только карьеру Прайса, но и всю его жизнь. Ложь — лучший политический союзник, но что делать, когда дело касается любви?…

Страна: США
Студия: Back Lot Pictures, KGB Media, Paper Street Films
Продолжительность: 01:30:08
Перевод: Профессиональный (многоголосый закадровый) PARADOX & OMSKBIRD records
Файл
Кодек: AVI
Качество: HDRip
Видео: XviD, 720x304 (2,35:1), 23.976 fps , 1720 kbps
Звук: AC-3, 48 KHz, 6 ch, 448 kbps
Субтитры: отсутствуют
Семпл

Релиз:

Совместный релиз OMSKBIRD records и PARADOX. При участии Петра Гланца.
Роли озвучивали: Пётр Гланц, Максим Максимов, Павел Ярощик и Анастасия Флигина.
Звукорежиссер: Павел Квентов

MediaInfo:

Общее
Полное имя : G:FilmsBeglec.2015.P.HDRip_Paradox_&_OMSKBIRD_records.avi
Формат : AVI
Формат/Информация : Audio Video Interleave
Размер файла : 1,37 Гбайт
Продолжительность : 1 ч. 30 м.
Общий поток : 2176 Кбит/сек
Программа кодирования : VirtualDubMod 1.5.10.2 (build 2540/release)
Библиотека кодирования : VirtualDubMod build 2540/release
Видео
Идентификатор : 0
Формат : MPEG-4 Visual
Профиль формата : Advanced [email protected]
Параметр BVOP формата : 2
Параметр QPel формата : Нет
Параметр GMC формата : Без точки перехода
Параметр матрицы формата : Default (H.263)
Режим смешивания : Сжатый битовый поток
Идентификатор кодека : XVID
Идентификатор кодека/Подсказка : XviD
Продолжительность : 1 ч. 30 м.
Битрейт : 1720 Кбит/сек
Ширина : 720 пикселей
Высота : 304 пикселя
Соотношение сторон : 2,35:1
Частота кадров : 23,976 кадра/сек
Цветовое пространство : YUV
Субдискретизация насыщенности : 4:2:0
Битовая глубина : 8 бит
Тип развёртки : Прогрессивная
Метод сжатия : С потерями
Бит/(Пиксели*Кадры) : 0.328
Размер потока : 1,08 Гбайт (79%)
Библиотека кодирования : XviD 66
Аудио
Идентификатор : 1
Формат : AC-3
Формат/Информация : Audio Coding 3
Расширение режима : CM (complete main)
Параметр Endianness формата : Big
Идентификатор кодека : 2000
Продолжительность : 1 ч. 29 м.
Вид битрейта : Постоянный
Битрейт : 448 Кбит/сек
Каналы : 6 каналов
Расположение каналов : Front: L C R, Side: L R, LFE
Частота : 48,0 КГц
Битовая глубина : 16 бит
Метод сжатия : С потерями
Размер потока : 288 Мбайт (21%)
Выравнивание : Разделение по промежуткам
Продолжительность промежутка : 42 мс. (1,00 видеокадр)
Время предзагрузки промежутка : 500 мс.

Скриншоты:

Яндекс.Метрика
Рейтинг@Mail.ru