[ Сегодня на трекере фрилич! Идет свободное скачивание без начисления Download ]

Эпидемия / Los últimos días (Давид Пастор / David Pastor, Алекс Пастор / Àlex Pastor) [2013 г., Фантастика, Триллер, Приключения] HDRip (MVO)

 

Создавать темы 15-Дек-2013 23:52

Эпидемия / Los últimos días«...12 недель спустя» Дата выхода: 2013
Премьера (Мир): 20 марта 2013, Испания, Барселона
Премьера (Россия): 31 октября 2013, «Ракета Релизинг»
Релиз на DVD R5: 3 декабря 2013, «CD Land»
Российское название: Эпидемия
Оригинальное название: Los últimos días
Жанр: Фантастика, Триллер, Приключения
Режиссёр: Давид Пастор / David Pastor, Алекс Пастор / Àlex Pastor
В ролях: Ким Гутьеррес, Хосе Коронадо, Марта Этура, Летисия Долера, Микель Иглесиас, Иван Массаге, Пере Вентура, Луис Солер, Hwida Фара Хамед
О фильме: 2013 год. Таинственная эпидемия мгновенно распространилась по планете: теперь миром правит агорафобия — боязнь открытого пространства. Оставшиеся в живых люди прячутся под землей или внутри зданий.
Главный герой офисный клерк Марк. Внезапная эпидемия застала его на работе. Дома у Марка осталась беременная жена, которая должна вот вот родить. Ему нужно вернуться к ней, но как это сделать, если он не может выйти на улицу? Он начинает свой путь по подземным коммуникациям, перебираясь из подвала, в другой подвал, из одного тоннеля метро в другой тоннель. Ему остается совсем немного, он уже видит свою жену из окна соседнего дома, но перейти в него, можно только по улице. Решится ли он на этот шаг?

Кинокомпания: A3 Media Cine, Les Films du Lendemain, MEDIA, Morena Films S.L., Rebelion Terrestre, Televisió de Catalunya (TV3)
Страна: Испания, Франция
Продолжительность: 01:42:42
Перевод: Профессиональный (многоголосый закадровый)
Аудио кодек: AC3
Видео кодек: XviD
Формат: Avi (Совместимо с бытовыми плеерами, 1/3 DVD5)
Качество: HDRip.
Видео: 720x304 (2.37:1), 24.00 fps, XviD Mpeg-4 build 50 ~1832 kbps avg, 0.349 bit/pixel
Аудио: Russian: 48 kHz, AC3 Dolby Digital, 2/0 (L, R) ch stereo, ~192 kbps
Язык: Русский.

Эпидемия 2013 трейлер HD

Рецензия с КиноПоиск.ru от Zhan

Квест в подземке
Понятное дело, что если вирусная эпидемия вызывает агорафобию, то основные события будут разворачиваться в замкнутом пространстве. В этом фильме главные герои ищут своих близких, передвигаясь через подземку, жуткие канализации, подвалы домов и неосвещенные супермаркеты, где за каждым углом их может поджидать неприятность. Люди стали как крысы, а последние идут в расход на питание. В то же время, приключенческая составляющая фильма наверное не является его самой ценной стороной.
Для меня интереснее было наблюдать, как братья Пасторы реализуют такую неожиданную идею постапокалипсиса на практике, да еще в условиях Барселоны. Конечно, до визуальных картинок опустошенного Манхэттена из «Я — легенда» (2007) не дотягивает, но у этих двух фильмов и бюджеты несравнимые. Зато «Эпидемия» больше выигрывает психологическим драматизмом, реалистичностью и даже уровнем саспенса. Два главных героя, которые до катастрофы ненавидели друг друга, теперь вынуждены плавить в одном котле свои страхи, страсти, отчаяние, стремление выжить и дойти до цели. Выигрышный момент европейского кино часто состоит в том, что, благодаря хорошему сценарию и более естественной игре актеров, поведение персонажей не вызывает явного раздражения. Это как раз тот самый случай.
Несмотря на имеющиеся недостатки (затянутость в начале, слабоватая графика), я бы порекомендовал эту картину любителям постапокалитики и тем, кому понравилась предыдущая режиссерская работа братьев на эту тему — «Носители» (2009). Но эти фильмы совсем о разном. Первый из них про американцев и их жесткие законы выживания, когда страх оказаться перед проблемой перечеркивает любую мораль. Второй фильм видимо о том, что объединение не пошло на пользу Европе, где затяжной финансовый кризис сопровождается упадком нравственности, отчуждением близких людей, ростом радикализма и ненависти, нежеланием иметь детей. Думаю, что завершающая часть фильма многим должна понравиться.

MediaInfo

Общее
Полное имя : D:\Epidemija.2013.HDRip.avi
Формат : AVI
Формат/Информация : Audio Video Interleave
Размер файла : 1,46 Гбайт
Продолжительность : 1 ч. 42 м.
Общий поток : 2033 Кбит/сек
Программа кодирования : VirtualDubMod 1.5.10.2 (build 2540/release)
Библиотека кодирования : VirtualDubMod build 2540/release
Видео
Идентификатор : 0
Формат : MPEG-4 Visual
Профиль формата : Advanced [email protected]
Параметр BVOP формата : 2
Параметр QPel формата : Нет
Параметр GMC формата : Без точки перехода
Параметр матрицы формата : Default (MPEG)
Идентификатор кодека : XVID
Идентификатор кодека/Подсказка : XviD
Продолжительность : 1 ч. 42 м.
Битрейт : 1832 Кбит/сек
Ширина : 720 пикселей
Высота : 304 пикселя
Соотношение сторон : 2,35:1
Частота кадров : 24,000 кадра/сек
Цветовое пространство : YUV
Субдискретизация насыщенности : 4:2:0
Битовая глубина : 8 бит
Тип развёртки : Прогрессивная
Метод сжатия : С потерями
Бит/(Пиксели*Кадры) : 0.349
Размер потока : 1,31 Гбайт (90%)
Библиотека кодирования : XviD 1.2.1 (UTC 2008-12-04)
Аудио
Идентификатор : 1
Формат : AC-3
Формат/Информация : Audio Coding 3
Расширение режима : CM (complete main)
Параметр Endianness формата : Big
Идентификатор кодека : 2000
Продолжительность : 1 ч. 42 м.
Вид битрейта : Постоянный
Битрейт : 192 Кбит/сек
Каналы : 2 канала
Расположение каналов : Front: L R
Частота : 48,0 КГц
Битовая глубина : 16 бит
Метод сжатия : С потерями
Размер потока : 141 Мбайт (9%)
Выравнивание : Разделение по промежуткам
Продолжительность промежутка : 42 мс. (1,00 видеокадр)
Время предзагрузки промежутка : 500 мс.

Скриншоты

Яндекс.Метрика
Рейтинг@Mail.ru