Мертвец в Тумбстоуне / Dead in Tombstone (Роэль Рейн ) [2013, ужасы, фэнтези, боевик, вестерн, HDRip] от Youtracker | D | Лицензия

 

Создавать темы 05-Окт-2013 19:50

Мертвец в Тумбстоуне / Dead in Tombstone- Год выпуска: 2013
Страна: США
Жанр: ужасы, фэнтези, боевик, вестерн
Продолжительность: 01:39:53
Перевод: Профессиональный (полное дублирование) | Лицензия
Субтитры: нет-Режиссер: Роэль Рейн / Roel Reiné
В ролях: Дэнни Трехо, Энтони Майкл Холл, Дина Мейер, Микки Рурк, Ричард Диллэйн, Колин Мейс, Эмиль Хостина, Овидиу Никулеску, Ронан Саммерс, Эдвард Экрут
Описание: Сюжет вращается вокруг мексиканского бандита по имени Герреро Эрнандес, которого предательски убил родной брат, свежевызволенный из тюрьмы. Заключивший сделку с Дьяволом с Эль Диабло, Эрнандес возвращается в мир живых, чтобы во всём разобраться и отомстить...- --Качество:HDRip
Формат: AVI
Видео: 656x368, 23.976 fps, XviD build 65 ~910 kbps avg, 0.16 bit/pixel
Аудио: 48 kHz, MPEG Layer 3, 2 ch, ~128.00 kbps avg-

MI

Общее
Полное имя : D:Mertvec.v.Tumbstoune.2013.D.HDRip.745mb.YTN.By_Flash.avi
Формат : AVI
Формат/Информация : Audio Video Interleave
Размер файла : 747 Мбайт
Продолжительность : 1 ч. 39 м.
Общий поток : 1045 Кбит/сек
Программа кодирования : VirtualDubMod 1.5.10.3 | www.virtualdub-fr.org || (build 2550/release)
Библиотека кодирования : VirtualDubMod build 2550/release
Видео
Идентификатор : 0
Формат : MPEG-4 Visual
Профиль формата : Advanced [email protected]
Параметр BVOP формата : 1
Параметр QPel формата : Нет
Параметр GMC формата : Без точки перехода
Параметр матрицы формата : Выборочная
Идентификатор кодека : XVID
Идентификатор кодека/Подсказка : XviD
Продолжительность : 1 ч. 39 м.
Битрейт : 908 Кбит/сек
Ширина : 656 пикселей
Высота : 368 пикселей
Соотношение сторон : 16:9
Частота кадров : 23,976 кадра/сек
Цветовое пространство : YUV
Субдискретизация насыщенности : 4:2:0
Битовая глубина : 8 бит
Тип развёртки : Прогрессивная
Метод сжатия : С потерями
Бит/(Пиксели*Кадры) : 0.157
Размер потока : 648 Мбайт (87%)
Библиотека кодирования : XviD 65
Аудио
Идентификатор : 1
Формат : MPEG Audio
Версия формата : Version 1
Профиль формата : Layer 3
Идентификатор кодека : 55
Идентификатор кодека/Подсказка : MP3
Продолжительность : 1 ч. 39 м.
Вид битрейта : Постоянный
Битрейт : 128 Кбит/сек
Каналы : 2 канала
Частота : 48,0 КГц
Метод сжатия : С потерями
Размер потока : 91,5 Мбайт (12%)
Выравнивание : Соединение по промежуткам
Продолжительность промежутка : 42 мс. (1,00 видеокадр)
Время предзагрузки промежутка : 504 мс.
Библиотека кодирования : L3.99r
Настройки программы : -m s -V 4 -q 2 -lowpass 17 -b 128

Скриншоты


_________________
Подпись отключена за нарушение правил форума

Создавать темы 31-Янв-2016 13:54 (спустя 2 года 3 месяца)

Топик был перенесен из форума Зарубежные Новинки (HD*Rip/LQ, DVDRip) в форум Зарубежные Фильмы (HD*Rip/LQ, DVDRip, SATRip, VHSRip)
T_O_M
Яндекс.Метрика
Рейтинг@Mail.ru