[ Сегодня на трекере фрилич! Идет свободное скачивание без начисления Download ]

Терпеливая любовь / Вечная любовь / Испытание любовью / Уцелевшая любовь / Enduring Love (Роджер Мишелл / Roger Michell) [2004, Великобритания, триллер, драма, мелодрама, детектив, WEB-DL 720p] 2x DVO + Sub Eng + Original Eng

 

Создавать темы 22-Авг-2015 08:51

--Терпеливая любовь / Вечная любовь / Испытание любовью / Уцелевшая любовь / Enduring Love-- Страна: Великобритания
Студия: Pathé Pictures International, UK Film Council, FilmFour
Жанр: триллер, драма, мелодрама, детектив
Год выпуска: 2004
Продолжительность: 01:40:38
Перевод 1: Профессиональный (двухголосый закадровый)
Перевод 2: Профессиональный (двухголосый закадровый) Elrom
Cубтитры: английские
Оригинальная аудиодорожка: английский
Режиссер: Роджер Мишелл / Roger Michell
В ролях: Дэниэл Крэйг, Саманта Мортон, Билл Уэстон, Джереми МакКюрди, Ли Шьюэрд, Ник Уилкинсон, Рис Иванс, Билл Найи, Сьюзэн Линч, Бен Уишоу...
Описание: Джо — профессор в колледже, Клэр — скульптор. Они давние приятели, и на предстоящем пикнике Джо собирается сделать Клэр предложение. Романтическое настроение испорчено случившейся поблизости трагедией. Джо едва не спас человека, но рядом оказался некто Джед, также претендовавший на лавры спасителя. Теперь Джед уверен, что в их столкновении заключен важный смысл, некая взаимосвязь, которая делает их намного ближе обычного случайного знакомства. Джед нахально вмешивается в жизнь профессора, разрушая его отношения с подругой…
II Сэмпл II IMDB II
Цитата:
За профессиональный двухголосый перевод спасибо Гость. За профессиональный двухголосый перевод от студии Elrom, благодарим VIPeR!
Тип релиза: WEB-DL 720p
Контейнер: MKV
Видео: AVC / 1280x544 / 2.35:1 / 23.976fps / Bit rate 3958Kbps
Аудио 1: AC3 / 48.0 KHz / 2ch. / 192kbps / rus / dvo
Аудио 2: AC3 / 48.0 KHz / 2ch. / 192kbps / rus / dvo / Elrom
Аудио 3: AC3 / 48.0 KHz / 6ch. / 384kbps / eng
Формат субтитров: softsub (SRT)

MediaInfo

Общее
Уникальный идентификатор : 246846991078023543033885668022187367753 (0xB9B5004D53874587B66FD85D5BAA9D49)
Полное имя : H:\!_Torrent\Enduring.Love.2004.WEB-DL.720p_by_vedigo.mkv
Формат : Matroska
Версия формата : Version 4 / Version 2
Размер файла : 3,39 Гбайт
Продолжительность : 1 ч. 40 м.
Общий поток : 4822 Кбит/сек
Название фильма : Enduring.Love.2004.WEB-DL.720p_by_vedigo
Дата кодирования : UTC 2015-08-22 03:16:32
Программа кодирования : mkvmerge v8.3.0 ('Over the Horizon') 64bit
Библиотека кодирования : libebml v1.3.1 + libmatroska v1.4.2
DURATION : 01:35:35.664000000
NUMBER_OF_FRAMES : 1394
NUMBER_OF_BYTES : 36736
_STATISTICS_WRITING_APP : mkvmerge v8.3.0 ('Over the Horizon') 64bit
_STATISTICS_WRITING_DATE_UTC : 2015-08-22 03:16:32
_STATISTICS_TAGS : BPS DURATION NUMBER_OF_FRAMES NUMBER_OF_BYTES
Видео
Идентификатор : 1
Формат : AVC
Формат/Информация : Advanced Video Codec
Профиль формата : [email protected]
Параметр CABAC формата : Нет
Параметр ReFrames формата : 2 кадра
Идентификатор кодека : V_MPEG4/ISO/AVC
Продолжительность : 1 ч. 40 м.
Битрейт : 3958 Кбит/сек
Ширина : 1280 пикселей
Высота : 544 пикселя
Соотношение сторон : 2,35:1
Режим частоты кадров : Постоянный
Частота кадров : 23,976 кадра/сек
Цветовое пространство : YUV
Субдискретизация насыщенности : 4:2:0
Битовая глубина : 8 бит
Тип развёртки : Прогрессивная
Бит/(Пиксели*Кадры) : 0.237
Размер потока : 2,78 Гбайт (82%)
Заголовок : Enduring.Love.2004.WEB-DL.720p_by_vedigo
Default : Да
Forced : Нет
Цветовой диапазон : Limited
Основные цвета : BT.709
Характеристики трансфера : BT.709
Коэффициенты матрицы : BT.709
Аудио #1
Идентификатор : 2
Формат : AC-3
Формат/Информация : Audio Coding 3
Расширение режима : CM (complete main)
Параметр Endianness формата : Big
Идентификатор кодека : A_AC3
Продолжительность : 1 ч. 40 м.
Вид битрейта : Постоянный
Битрейт : 192 Кбит/сек
Каналы : 2 канала
Расположение каналов : Front: L R
Частота : 48,0 КГц
Метод сжатия : С потерями
Размер потока : 138 Мбайт (4%)
Заголовок : DVO
Язык : Russian
Default : Да
Forced : Нет
Аудио #2
Идентификатор : 3
Формат : AC-3
Формат/Информация : Audio Coding 3
Расширение режима : CM (complete main)
Параметр Endianness формата : Big
Идентификатор кодека : A_AC3
Продолжительность : 1 ч. 40 м.
Вид битрейта : Постоянный
Битрейт : 192 Кбит/сек
Каналы : 2 канала
Расположение каналов : Front: L R
Частота : 48,0 КГц
Метод сжатия : С потерями
Размер потока : 138 Мбайт (4%)
Заголовок : DVO @ Elrom
Язык : Russian
Default : Нет
Forced : Нет
Аудио #3
Идентификатор : 4
Формат : AC-3
Формат/Информация : Audio Coding 3
Расширение режима : CM (complete main)
Параметр Endianness формата : Big
Идентификатор кодека : A_AC3
Продолжительность : 1 ч. 40 м.
Вид битрейта : Постоянный
Битрейт : 384 Кбит/сек
Каналы : 6 каналов
Расположение каналов : Front: L C R, Side: L R, LFE
Частота : 48,0 КГц
Метод сжатия : С потерями
Размер потока : 276 Мбайт (8%)
Заголовок : original
Язык : English
Default : Нет
Forced : Нет
Текст
Идентификатор : 5
Формат : UTF-8
Идентификатор кодека : S_TEXT/UTF8
Идентификатор кодека/Информация : UTF-8 Plain Text
Заголовок : subtitle eng
Язык : English
Default : Нет
Forced : Нет
Меню
00:00:00.000 : en:The Red Balloon
00:05:39.000 : en:In Shock
00:12:11.000 : en:Weirdly Familiar
00:20:21.000 : en:Don't Let Me Down
00:29:54.000 : en:Nobody Understands
00:36:45.000 : en:Somebody Let Go
00:42:45.000 : en:Birthday Dinner
00:47:49.000 : en:Forget About Claire
00:53:29.000 : en:Stupid Organisms
00:59:15.000 : en:Curtains & Stalking
01:05:43.000 : en:Over
01:10:54.000 : en:What Have I Done?
01:16:12.000 : en:Sort It All Out
01:21:35.000 : en:It Meant Everything
01:27:30.000 : en:The Field
01:34:44.000 : en:End Titles

Скриншоты

Яндекс.Метрика
Рейтинг@Mail.ru