Как пришить свою женушку / How to Murder Your Wife (Ричард Куайн / Richard Quine) [1965, США, мелодрама, комедия, HDTV 1080i] DVO (НТВ+) + Original Eng

 

Создавать темы 22-Авг-2015 08:44

--Как пришить свою женушку / How to Murder Your Wife--- Страна: США
Студия: Murder Inc. | United Artists
Жанр: мелодрама, комедия
Год выпуска: 1965
Продолжительность: 01:53:38-Перевод: Профессиональный (двухголосый закадровый) НТВ+ | Марина Бакина, Даниил Эльдаров
Cубтитры: нет
Оригинальная аудиодорожка: английский-Режиссер: Ричард Куайн / Richard Quine
В ролях: Джек Леммон, Вирна Лизи, Терри-Томас, Эдди Майхоф, Клэр Тревор...- | Релиз: -Описание: Художник-аниматор Стэнли Форд, автор популярнейших комиксов о суперагенте, не знает ни забот, ни печалей и вовсю наслаждается жизнью холостяка. Все приключения своего нарисованного героя, прежде чем перенести их на бумагу, он предварительно испытывает на себе. Захватывающие погони, перестрелки, любовные похождения, светские рауты… И вот после очередной вечеринки он просыпается женатым на итальянке, ни слова не понимающей по-английски. Жизнь Стэнли, такая привычная и во всех отношениях приятная, начинает рушиться. Вскоре у него в голове рождается сюжет очередного комикса: «Как пришить свою жёнушку»…-Семпл: http://sendfile.su/1147943-Тип релиза: HDTV 1080i
Контейнер: TS
Видео: 1920x1080i (16:9), 25.000 fps, AVC, ~6835 Kbps, 0.132 bits/pixel
Аудио 1: Русский, 48.0 KHz, MPEG-1 Audio layer 2, 2 ch, 192 kbps
Аудио 2: English, 48.0 KHz, MPEG-1 Audio layer 2, 2 ch, 192 kbps

MediaInfo

GeneralID : 1 (0x1)Complete name : How to Murder Your Wife 1965 MGMHD 1080i.rus.eng.tsFormat : MPEG-TSFile size : 6.07 GiBDuration : 1h 53mnOverall bit rate mode : VariableOverall bit rate : 7 643 KbpsMaximum Overall bit rate : 35.5 Mbps
VideoID : 4113 (0x1011)Menu ID : 1 (0x1)Format : AVCFormat/Info : Advanced Video CodecFormat profile : [email protected] settings, CABAC : YesFormat settings, ReFrames : 4 framesFormat settings, GOP : M=4, N=28Codec ID : 27Duration : 1h 53mnBit rate mode : VariableBit rate : 6 877 KbpsMaximum bit rate : 40.0 MbpsWidth : 1 920 pixelsHeight : 1 080 pixelsDisplay aspect ratio : 16:9Frame rate : 25.000 fpsStandard : ComponentColor space : YUVChroma subsampling : 4:2:0Bit depth : 8 bitsScan type : InterlacedScan order : Top Field FirstBits/(Pixel*Frame) : 0.133Stream size : 5.46 GiB (90%)Color range : LimitedColor primaries : BT.709Transfer characteristics : BT.709Matrix coefficients : BT.709
Audio #1ID : 4352 (0x1100)Menu ID : 1 (0x1)Format : MPEG AudioFormat version : Version 1Format profile : Layer 2Codec ID : 4Duration : 1h 53mnBit rate mode : ConstantBit rate : 192 KbpsChannel(s) : 2 channelsSampling rate : 48.0 KHzCompression mode : LossyStream size : 156 MiB (3%)Language : Russian
Audio #2ID : 4353 (0x1101)Menu ID : 1 (0x1)Format : MPEG AudioFormat version : Version 1Format profile : Layer 2Codec ID : 4Duration : 1h 53mnBit rate mode : ConstantBit rate : 192 KbpsChannel(s) : 2 channelsSampling rate : 48.0 KHzCompression mode : LossyStream size : 156 MiB (3%)Language : English

Скриншоты

Яндекс.Метрика
Рейтинг@Mail.ru