Мстители: Эра Альтрона / Avengers: Age of Ultron (2015) WEB-DL 720p | Звук с TS

 

Создавать темы 20-Авг-2015 21:56

Мстители: Эра Альтрона / Avengers: Age of UltronГод выхода: 2015
Жанр: фантастика, боевик, триллер, приключения
Режиссер: Джосс Уидон
В ролях:
Роберт Дауни мл., Крис Хемсворт, Крис Эванс, Скарлетт Йоханссон, Марк Руффало, Джереми Реннер, Аарон Тейлор-Джонсон, Элизабет Олсен, Джеймс Спэйдер, Сэмюэл Л. Джексон
О фильме:
Человечество на грани уничтожения. На этот раз людям угрожает Альтрон — искусственный интеллект, ранее созданный для того, чтобы защищать Землю от любых угроз. Однако, главной угрозой он посчитал человечество. Международная организация Щ. И. Т. распалась, и теперь мир не способен справиться с таким мощным врагом, потому люди вновь обращаются за помощью к Величайшим Героям Земли — Мстителям. Однако Альтрон слишком силен, и есть большая вероятность, что даже им не удастся остановить начало надвигающейся Эры Альтрона, где нет места для людей…

Семпл
Выпущено: США / Marvel Studios
Продолжительность: 02:21:39
Озвучивание: Дублированное [Звук с TS]
Файл
Формат: MKV
Качество: WEB-DL 720p
Видео: 3837 kb/s, 1280x534
Аудио: MP3, 192 kb/s (2 ch) / English: AC3, 384 kb/s (6 ch)
Субтитры: English

MI

Format                         : Matroska
Format version                 : Version 4 / Version 2
File size                      : 4.45 GiB
Duration                       : 2h 21mn
Overall bit rate               : 4 502 Kbps
Encoded date                   : UTC 2015-08-20 11:02:11
Writing application            : mkvmerge v6.1.0 ('Old Devil') built on Mar  4 2013 09:10:42
Writing library                : libebml v1.3.0 + libmatroska v1.4.0
Video
ID                             : 1
Format                         : AVC
Format/Info                    : Advanced Video Codec
Format profile                 : [email protected]
Format settings, CABAC         : No
Format settings, ReFrames      : 2 frames
Codec ID                       : V_MPEG4/ISO/AVC
Duration                       : 2h 21mn
Bit rate                       : 3 837 Kbps
Width                          : 1 280 pixels
Height                         : 534 pixels
Display aspect ratio           : 2.40:1
Frame rate mode                : Constant
Frame rate                     : 23.976 fps
Color space                    : YUV
Chroma subsampling             : 4:2:0
Bit depth                      : 8 bits
Scan type                      : Progressive
Bits/(Pixel*Frame)             : 0.234
Stream size                    : 3.80 GiB (85%)
Language                       : English
Default                        : Yes
Forced                         : No
Color range                    : Limited
Color primaries                : BT.709
Transfer characteristics       : BT.709
Matrix coefficients            : BT.709
Audio #1
ID                             : 2
Format                         : MPEG Audio
Format version                 : Version 1
Format profile                 : Layer 3
Mode                           : Joint stereo
Codec ID                       : A_MPEG/L3
Codec ID/Hint                  : MP3
Duration                       : 2h 21mn
Bit rate mode                  : Constant
Bit rate                       : 192 Kbps
Channel(s)                     : 2 channels
Sampling rate                  : 48.0 KHz
Compression mode               : Lossy
Stream size                    : 195 MiB (4%)
Language                       : Russian
Default                        : Yes
Forced                         : No
Audio #2
ID                             : 3
Format                         : AC-3
Format/Info                    : Audio Coding 3
Mode extension                 : CM (complete main)
Format settings, Endianness    : Big
Codec ID                       : A_AC3
Duration                       : 2h 21mn
Bit rate mode                  : Constant
Bit rate                       : 384 Kbps
Channel(s)                     : 6 channels
Channel positions              : Front: L C R, Side: L R, LFE
Sampling rate                  : 48.0 KHz
Bit depth                      : 16 bits
Compression mode               : Lossy
Stream size                    : 389 MiB (9%)
Language                       : English
Default                        : No
Forced                         : No
Text
ID                             : 4
Format                         : UTF-8
Codec ID                       : S_TEXT/UTF8
Codec ID/Info                  : UTF-8 Plain Text
Language                       : English
Default                        : No
Forced                         : No
Menu
00:00:00.000                   : en:1
00:12:15.000                   : en:2
00:21:24.000                   : en:3
00:33:01.000                   : en:4
00:36:07.000                   : en:5
00:42:00.000                   : en:6
00:52:43.000                   : en:7
00:59:00.000                   : en:8
01:15:51.000                   : en:9
01:27:08.000                   : en:10
01:36:44.000                   : en:11
01:54:35.000                   : en:12
02:06:27.000                   : en:13
02:11:08.000                   : en:14

Скриншоты:

Яндекс.Метрика
Рейтинг@Mail.ru