[ Сегодня на трекере фрилич! Идет свободное скачивание без начисления Download ]

Форсаж 7 / Furious Seven (2015) DVD9 | Театральная версия | Лицензия

 

Создавать темы 19-Авг-2015 22:40

Форсаж 7 / Furious Seven Информация о фильме
Название: Форсаж 7
Оригинальное название: Furious Seven
Год выхода: 2015
Жанр: боевик, триллер, криминал
Режиссер: Джеймс Ван
В ролях: Вин Дизель, Пол Уокер, Джейсон Стэйтем, Мишель Родригес, Дуэйн Джонсон, Тайриз Гибсон, Лудакрис, Натали Эммануэль, Джордана Брюстер, Курт Рассел
О фильме:
Они покорили Токио и Рио, Лос-Анджелес и Лондон. Но мир больше не играет по их правилам. Зной арабских пустынь, неприлично высокие небоскребы, миллионы долларов на колесах и очень, очень знаменитый злодей. Скорость не знает границ.- -Страна: США
Студия: Universal Pictures
Продолжительность: 132 мин. / 02:12
Перевод: полное дублирование-Файл
Кодек: MPEG2
Качество: DVD9 "Двадцатый Век Фокс СНГ"
Видео: PAL 16:9 ([email protected]) VBR 5293 Kbps, 25.000 fps
Аудио 1: Dolby AC3, 6 ch, 48.0 KHz, 384 Кbps (русский)
Аудио 2: Dolby AC3, 6 ch, 48.0 KHz, 384 Кbps (английский)
Аудио 3: Dolby AC3, 6 ch, 48.0 KHz, 384 Кbps (венгерский)
Аудио 4: Dolby AC3, 6 ch, 48.0 KHz, 384 Кbps (чешский)
Аудио 5: Dolby AC3, 6 ch, 48.0 KHz, 384 Кbps (польский)
Субтитры: русские, украинские, английские, чешские, венгерские, польские, болгарские, хорватские, эстонские, греческие, иврит, латышские, литовские, румынские, словенские-

MediaInfo

Общее
Полное имя                               : D:Forsazh.VII.DVD9VIDEO_TSVTS_08_1.VOB
Формат                                   : MPEG-PS
Размер файла                             : 1024 Мбайт
Продолжительность                        : 19 м.
Режим общего битрейта                    : Переменный
Общий поток                              : 7359 Кбит/сек
Видео
Идентификатор                            : 224 (0xE0)
Формат                                   : MPEG Video
Версия формата                           : Version 2
Профиль формата                          : [email protected]
Параметр BVOP формата                    : Да
Параметр матрицы формата                 : Выборочная
Параметр GOP формата                     : Variable
Структура изображения                    : Frame
Продолжительность                        : 19 м.
Вид битрейта                             : Переменный
Битрейт                                  : 5293 Кбит/сек
Максимальный битрейт                     : 9800 Кбит/сек
Ширина                                   : 720 пикселей
Высота                                   : 576 пикселей
Соотношение сторон                       : 16:9
Частота кадров                           : 25,000 кадров/сек
Стандарт вещания                         : PAL
Цветовое пространство                    : YUV
Субдискретизация насыщенности            : 4:2:0
Битовая глубина                          : 8 бит
Тип развёртки                            : Чересстрочная
Порядок развёртки                        : Верхнее поле первое
Метод сжатия                             : С потерями
Бит/(Пиксели*Кадры)                      : 0.511
Временной код первого кадра              : 00:59:59:00
Оригинал временного кода                 : Group of pictures header
Размер потока                            : 736 Мбайт (72%)
Аудио #1
Идентификатор                            : 189 (0xBD)-128 (0x80)
Формат                                   : AC-3
Формат/Информация                        : Audio Coding 3
Расширение режима                        : CM (complete main)
Параметр Endianness формата              : Big
Режим смешивания                         : DVD-Video
Продолжительность                        : 19 м.
Вид битрейта                             : Постоянный
Битрейт                                  : 384 Кбит/сек
Каналы                                   : 6 каналов
Расположение каналов                     : Front: L C R, Side: L R, LFE
Частота                                  : 48,0 КГц
Битовая глубина                          : 16 бит
Метод сжатия                             : С потерями
Размер потока                            : 53,4 Мбайт (5%)
Аудио #2
Идентификатор                            : 189 (0xBD)-129 (0x81)
Формат                                   : AC-3
Формат/Информация                        : Audio Coding 3
Расширение режима                        : CM (complete main)
Параметр Endianness формата              : Big
Режим смешивания                         : DVD-Video
Продолжительность                        : 19 м.
Вид битрейта                             : Постоянный
Битрейт                                  : 384 Кбит/сек
Каналы                                   : 6 каналов
Расположение каналов                     : Front: L C R, Side: L R, LFE
Частота                                  : 48,0 КГц
Битовая глубина                          : 16 бит
Метод сжатия                             : С потерями
Размер потока                            : 53,4 Мбайт (5%)
Аудио #3
Идентификатор                            : 189 (0xBD)-130 (0x82)
Формат                                   : AC-3
Формат/Информация                        : Audio Coding 3
Расширение режима                        : CM (complete main)
Параметр Endianness формата              : Big
Режим смешивания                         : DVD-Video
Продолжительность                        : 19 м.
Вид битрейта                             : Постоянный
Битрейт                                  : 384 Кбит/сек
Каналы                                   : 6 каналов
Расположение каналов                     : Front: L C R, Side: L R, LFE
Частота                                  : 48,0 КГц
Битовая глубина                          : 16 бит
Метод сжатия                             : С потерями
Размер потока                            : 53,4 Мбайт (5%)
Аудио #4
Идентификатор                            : 189 (0xBD)-131 (0x83)
Формат                                   : AC-3
Формат/Информация                        : Audio Coding 3
Расширение режима                        : CM (complete main)
Параметр Endianness формата              : Big
Режим смешивания                         : DVD-Video
Продолжительность                        : 19 м.
Вид битрейта                             : Постоянный
Битрейт                                  : 384 Кбит/сек
Каналы                                   : 6 каналов
Расположение каналов                     : Front: L C R, Side: L R, LFE
Частота                                  : 48,0 КГц
Битовая глубина                          : 16 бит
Метод сжатия                             : С потерями
Размер потока                            : 53,4 Мбайт (5%)
Аудио #5
Идентификатор                            : 189 (0xBD)-132 (0x84)
Формат                                   : AC-3
Формат/Информация                        : Audio Coding 3
Расширение режима                        : CM (complete main)
Параметр Endianness формата              : Big
Режим смешивания                         : DVD-Video
Продолжительность                        : 19 м.
Вид битрейта                             : Постоянный
Битрейт                                  : 384 Кбит/сек
Каналы                                   : 6 каналов
Расположение каналов                     : Front: L C R, Side: L R, LFE
Частота                                  : 48,0 КГц
Битовая глубина                          : 16 бит
Метод сжатия                             : С потерями
Размер потока                            : 53,4 Мбайт (5%)
Текст #1
Идентификатор                            : 189 (0xBD)-32 (0x20)
Формат                                   : RLE
Формат/Информация                        : Run-length encoding
Режим смешивания                         : DVD-Video
Текст #2
Идентификатор                            : 189 (0xBD)-33 (0x21)
Формат                                   : RLE
Формат/Информация                        : Run-length encoding
Режим смешивания                         : DVD-Video
Текст #3
Идентификатор                            : 189 (0xBD)-34 (0x22)
Формат                                   : RLE
Формат/Информация                        : Run-length encoding
Режим смешивания                         : DVD-Video
Текст #4
Идентификатор                            : 189 (0xBD)-35 (0x23)
Формат                                   : RLE
Формат/Информация                        : Run-length encoding
Режим смешивания                         : DVD-Video
Текст #5
Идентификатор                            : 189 (0xBD)-36 (0x24)
Формат                                   : RLE
Формат/Информация                        : Run-length encoding
Режим смешивания                         : DVD-Video
Текст #6
Идентификатор                            : 189 (0xBD)-37 (0x25)
Формат                                   : RLE
Формат/Информация                        : Run-length encoding
Режим смешивания                         : DVD-Video
Текст #7
Идентификатор                            : 189 (0xBD)-38 (0x26)
Формат                                   : RLE
Формат/Информация                        : Run-length encoding
Режим смешивания                         : DVD-Video
Текст #8
Идентификатор                            : 189 (0xBD)-39 (0x27)
Формат                                   : RLE
Формат/Информация                        : Run-length encoding
Режим смешивания                         : DVD-Video
Текст #9
Идентификатор                            : 189 (0xBD)-40 (0x28)
Формат                                   : RLE
Формат/Информация                        : Run-length encoding
Режим смешивания                         : DVD-Video
Текст #10
Идентификатор                            : 189 (0xBD)-41 (0x29)
Формат                                   : RLE
Формат/Информация                        : Run-length encoding
Режим смешивания                         : DVD-Video
Текст #11
Идентификатор                            : 189 (0xBD)-42 (0x2A)
Формат                                   : RLE
Формат/Информация                        : Run-length encoding
Режим смешивания                         : DVD-Video
Текст #12
Идентификатор                            : 189 (0xBD)-43 (0x2B)
Формат                                   : RLE
Формат/Информация                        : Run-length encoding
Режим смешивания                         : DVD-Video
Текст #13
Идентификатор                            : 189 (0xBD)-44 (0x2C)
Формат                                   : RLE
Формат/Информация                        : Run-length encoding
Режим смешивания                         : DVD-Video
Текст #14
Идентификатор                            : 189 (0xBD)-45 (0x2D)
Формат                                   : RLE
Формат/Информация                        : Run-length encoding
Режим смешивания                         : DVD-Video
Текст #15
Идентификатор                            : 189 (0xBD)-46 (0x2E)
Формат                                   : RLE
Формат/Информация                        : Run-length encoding
Режим смешивания                         : DVD-Video
Текст #16
Идентификатор                            : 189 (0xBD)-47 (0x2F)
Формат                                   : RLE
Формат/Информация                        : Run-length encoding
Режим смешивания                         : DVD-Video
Текст #17
Идентификатор                            : 189 (0xBD)-48 (0x30)
Формат                                   : RLE
Формат/Информация                        : Run-length encoding
Режим смешивания                         : DVD-Video
Текст #18
Идентификатор                            : 189 (0xBD)-49 (0x31)
Формат                                   : RLE
Формат/Информация                        : Run-length encoding
Режим смешивания                         : DVD-Video
Меню

Скриншоты:

Яндекс.Метрика
Рейтинг@Mail.ru