Мордекай / Mortdecai (Дэвид Кепп) [2015 г., Комедия, боевик, BDRip 720p] DUB [iTunes]

 

Создавать темы 17-Авг-2015 20:29


Мордекай / Mortdecai«У совершенства есть имя»- Год выхода: 2015
Страна: Великобритания, США
Жанр: Комедия, боевик
Продолжительность: 01:46:42
Перевод: Профессиональный (полное дублирование) [iTunes]
Субтитры:Английские, румынские
Режиссер: Дэвид Кепп
В ролях: Джонни Депп, Гвинет Пэлтроу, Пол Беттани, Эван МакГрегор, Оливия Манн, Джонатон Пасвольски, Майкл Калкин, Ульрих Томсен, Алек Утгофф, Роб де Гроот, Гай Бернет, Джефф Голдблюм, Антти Хакала, Пол Уайтхаус, Норма Аталла, Николас Фэррел, Карл Теобалд, Камилла Бипут, Майкл Бирн, Эмили Лоуренс
О фильме: Фильм рассказывает историю чудаковатого лорда Чарли Мордекая и его длинноногой жены. Чарли проворачивает аферы в сфере искусства, пытаясь раздобыть полотно Гойи. По легенде на обратной стороне полотна записан код доступа к ячейке с нацистским золотом. В ходе погони за картиной, Чарли придется встретиться и с итальянской мафией, и со злобными российскими спецслужбами , и с английским МИ-5 и даже с международными террористами. А по пятам за Чарли следует инспектор полиции Юэн МакГрегор...
Качество: BDRip 720p
Формат: mkv
Видео кодек: AVC
Аудио кодек: AC3, DTS
Видео: 1280x534, 23.976 fps, 5743 Кбит/с
Аудио #1: AC3, 384 kb/s, 6 ch, 48.0 KHz [Russian]
Аудио #2: DTS, 1509 kb/s, 6 ch, 48.0 KHz [English]

MediaInfo

General
Unique ID                                : 199207275726533314363400028661321311599 (0x95DDECFDB32DB547BF2892070214256F)
Complete name                            : E:\Mortdecai.2015.720p.BluRay.x264.Rus.Eng.Subs-CtrlHD.mkv
Format                                   : Matroska
Format version                           : Version 4 / Version 2
File size                                : 5.81 GiB
Duration                                 : 1h 46mn
Overall bit rate                         : 7 791 Kbps
Movie name                               : released by aldershot
Encoded date                             : UTC 2015-08-17 06:34:47
Writing application                      : mkvmerge v6.9.1 ('Blue Panther') 64bit built on Apr 18 2014 18:23:38
Writing library                          : libebml v1.3.0 + libmatroska v1.4.1
Video
ID                                       : 1
Format                                   : AVC
Format/Info                              : Advanced Video Codec
Format profile                           : [email protected]
Format settings, CABAC                   : Yes
Format settings, ReFrames                : 12 frames
Codec ID                                 : V_MPEG4/ISO/AVC
Duration                                 : 1h 46mn
Bit rate                                 : 5 743 Kbps
Width                                    : 1 280 pixels
Height                                   : 534 pixels
Display aspect ratio                     : 2.40:1
Frame rate mode                          : Constant
Frame rate                               : 23.976 fps
Color space                              : YUV
Chroma subsampling                       : 4:2:0
Bit depth                                : 8 bits
Scan type                                : Progressive
Bits/(Pixel*Frame)                       : 0.350
Stream size                              : 4.28 GiB (74%)
Title                                    : CtrlHD
Writing library                          : x264 core 146 r2538kMod 121396c
Encoding settings                        : cabac=1 / ref=12 / deblock=1:-3:-3 / analyse=0x3:0x133 / me=umh / subme=10 / psy=1 / fade_compensate=0.00 / psy_rd=1.05:0.00 / mixed_ref=1 / me_range=32 / chroma_me=1 / trellis=2 / 8x8dct=1 / cqm=0 / deadzone=21,11 / fast_pskip=0 / chroma_qp_offset=-2 / threads=6 / lookahead_threads=1 / sliced_threads=0 / nr=0 / decimate=0 / interlaced=0 / bluray_compat=0 / constrained_intra=0 / fgo=0 / bframes=7 / b_pyramid=2 / b_adapt=2 / b_bias=0 / direct=3 / weightb=1 / open_gop=0 / weightp=2 / keyint=250 / keyint_min=23 / scenecut=40 / intra_refresh=0 / rc_lookahead=60 / rc=crf / mbtree=0 / crf=16.0000 / qcomp=0.70 / qpmin=0 / qpmax=69 / qpstep=4 / vbv_maxrate=62500 / vbv_bufsize=78125 / crf_max=0.0 / nal_hrd=none / filler=0 / ip_ratio=1.20 / pb_ratio=1.10 / aq=1:0.80 / zones=69,887,crf=14/104433,104463,crf=14
Language                                 : English
Default                                  : Yes
Forced                                   : No
Audio #1
ID                                       : 2
Format                                   : AC-3
Format/Info                              : Audio Coding 3
Mode extension                           : CM (complete main)
Format settings, Endianness              : Big
Codec ID                                 : A_AC3
Duration                                 : 1h 46mn
Bit rate mode                            : Constant
Bit rate                                 : 384 Kbps
Channel(s)                               : 6 channels
Channel positions                        : Front: L C R, Side: L R, LFE
Sampling rate                            : 48.0 KHz
Bit depth                                : 16 bits
Compression mode                         : Lossy
Stream size                              : 293 MiB (5%)
Title                                    : AC3 5.1 @ 384 Kbps, Дубляж, iTunes
Language                                 : Russian
Default                                  : Yes
Forced                                   : No
Audio #2
ID                                       : 3
Format                                   : DTS
Format/Info                              : Digital Theater Systems
Mode                                     : 16
Format settings, Endianness              : Big
Codec ID                                 : A_DTS
Duration                                 : 1h 46mn
Bit rate mode                            : Constant
Bit rate                                 : 1 509 Kbps
Channel(s)                               : 6 channels
Channel positions                        : Front: L C R, Side: L R, LFE
Sampling rate                            : 48.0 KHz
Bit depth                                : 24 bits
Compression mode                         : Lossy
Stream size                              : 1.12 GiB (19%)
Title                                    : DTS 5.1 @ 1536 Kbps, Original
Language                                 : English
Default                                  : No
Forced                                   : No
Text #1
ID                                       : 4
Format                                   : UTF-8
Codec ID                                 : S_TEXT/UTF8
Codec ID/Info                            : UTF-8 Plain Text
Title                                    : full
Language                                 : Romanian
Default                                  : No
Forced                                   : No
Text #2
ID                                       : 5
Format                                   : UTF-8
Codec ID                                 : S_TEXT/UTF8
Codec ID/Info                            : UTF-8 Plain Text
Title                                    : full
Language                                 : English
Default                                  : No
Forced                                   : No
Text #3
ID                                       : 6
Format                                   : UTF-8
Codec ID                                 : S_TEXT/UTF8
Codec ID/Info                            : UTF-8 Plain Text
Title                                    : SDH
Language                                 : English
Default                                  : No
Forced                                   : No
Menu
00:00:00.000                             : en:Chapter 1
00:05:04.179                             : en:Chapter 2
00:11:31.232                             : en:Chapter 3
00:18:52.548                             : en:Chapter 4
00:24:04.151                             : en:Chapter 5
00:29:49.496                             : en:Chapter 6
00:36:55.797                             : en:Chapter 7
00:42:51.611                             : en:Chapter 8
00:50:03.375                             : en:Chapter 9
00:56:39.688                             : en:Chapter 10
01:03:47.699                             : en:Chapter 11
01:10:07.244                             : en:Chapter 12
01:18:45.304                             : en:Chapter 13
01:24:56.424                             : en:Chapter 14
01:28:58.083                             : en:Chapter 15
01:33:49.248                             : en:Chapter 16

Рейтинг

Доп. информация

Бюджет: $60 000 000
Сборы в США: $7 696 134
Сборы в мире: + $22 722 426 = $30 418 560
Дата мировой премьеры: 21 января 2015
Дата российской премьеры: 18 июня 2015, «West»
Яндекс.Метрика
Рейтинг@Mail.ru