[ Сегодня на трекере фрилич! Идет свободное скачивание без начисления Download ]

Полицейская тачка / Cop Car (2015) WEB-DL 720p | L1

 

Создавать темы 17-Авг-2015 08:49

Информация о фильме
Название: Полицейская тачка
Оригинальное название: Cop Car
Год выхода: 2015
Жанр: триллер
Режиссер: Джон Уоттс
В ролях: Кевин Бейкон, Джеймс Фридсон-Джексон, Хэйс Уэллфорд, Камрин Менхейм, Ши Уигхэм, Кэтлин Бентли, Джозеф Оливейра-О фильме: Два 10-летних мальчишки находят заброшенный полицейский автомобиль и решают присвоить его себе. Обычная детская игра начинает приобретать пугающие черты после того, как шериф небольшого городка отправляется на поиски своей пропавшей машины.

Выпущено: США / Audax Films, Audax Films, End Cue, Park Pictures
Продолжительность: 01:27:47
Озвучивание: Любительское (одноголосое) [Paul Bunyan], перевод [Paul Bunyan]
Файл
Формат: MKV
Качество: WEB-DL 720p
Видео: 3905 kb/s, 1280x532
Аудио: Russian / English: AC3, 384 kb/s (6 ch)
Субтитры: English

MI

Format : Matroska
Format version : Version 4 / Version 2
File size : 2.92 GiB
Duration : 1h 27mn
Overall bit rate : 4 768 Kbps
Encoded date : UTC 2015-08-17 06:24:12
Writing application : mkvmerge v6.1.0 ('Old Devil') built on Mar 4 2013 09:10:42
Writing library : libebml v1.3.0 + libmatroska v1.4.0
Video
ID : 1
Format : AVC
Format/Info : Advanced Video Codec
Format profile : [email protected]
Format settings, CABAC : No
Format settings, ReFrames : 2 frames
Codec ID : V_MPEG4/ISO/AVC
Duration : 1h 27mn
Bit rate : 3 905 Kbps
Width : 1 280 pixels
Height : 532 pixels
Display aspect ratio : 2.40:1
Frame rate mode : Constant
Frame rate : 23.976 fps
Color space : YUV
Chroma subsampling : 4:2:0
Bit depth : 8 bits
Scan type : Progressive
Bits/(Pixel*Frame) : 0.239
Stream size : 2.39 GiB (82%)
Language : English
Default : Yes
Forced : No
Color range : Limited
Color primaries : BT.709
Transfer characteristics : BT.709
Matrix coefficients : BT.709
Audio #1
ID : 2
Format : AC-3
Format/Info : Audio Coding 3
Mode extension : CM (complete main)
Format settings, Endianness : Big
Codec ID : A_AC3
Duration : 1h 27mn
Bit rate mode : Constant
Bit rate : 384 Kbps
Channel(s) : 6 channels
Channel positions : Front: L C R, Side: L R, LFE
Sampling rate : 48.0 KHz
Bit depth : 16 bits
Compression mode : Lossy
Stream size : 241 MiB (8%)
Language : Russian
Default : Yes
Forced : No
Audio #2
ID : 3
Format : AC-3
Format/Info : Audio Coding 3
Mode extension : CM (complete main)
Format settings, Endianness : Big
Codec ID : A_AC3
Duration : 1h 27mn
Bit rate mode : Constant
Bit rate : 384 Kbps
Channel(s) : 6 channels
Channel positions : Front: L C R, Side: L R, LFE
Sampling rate : 48.0 KHz
Bit depth : 16 bits
Compression mode : Lossy
Stream size : 241 MiB (8%)
Language : English
Default : No
Forced : No
Text
ID : 4
Format : UTF-8
Codec ID : S_TEXT/UTF8
Codec ID/Info : UTF-8 Plain Text
Language : English
Default : No
Forced : No
Menu
00:00:00.000 : en:1
00:05:25.000 : en:2
00:10:04.000 : en:3
00:14:29.000 : en:4
00:20:30.000 : en:5
00:23:43.000 : en:6
00:27:53.000 : en:7
00:30:32.000 : en:8
00:34:43.000 : en:9
00:40:13.000 : en:10
00:43:31.000 : en:11
00:48:24.000 : en:12
00:52:50.000 : en:13
00:56:31.000 : en:14
01:00:37.000 : en:15
01:05:08.000 : en:16
01:08:58.000 : en:17
01:15:30.000 : en:18
01:19:43.000 : en:19

Скриншоты

Яндекс.Метрика
Рейтинг@Mail.ru