[ Сегодня на трекере фрилич! Идет свободное скачивание без начисления Download ]

BBC: Постигая звёздное небо / Stargazing Live [сезон 3 серия 1- 3 из 3]

 

Создавать темы 17-Авг-2015 08:09

BBC: Постигая звёздное небо / Stargazing Live [сезон 3 серия 1- 3 из 3]- Год выпуска: 2013
Страна: Великобритания, BBC
Жанр: Документальный, научно-познавательный, космос
Продолжительность: 3x~00:48:02
Перевод: Профессиональный (двухголосый), компания "Видеофильм ТВ"
Режисер: Barbara Wiltshire
В ролях: ведущие - Brian Cox, Dara O'Briain-Описание: -Такое огромное, бескрайнее и глубокое небо. Миллионы лет миллиарды глаз смотрят вверх и пытаются разгадать, что же там, и почему нас туда так тянет. Дара О'Бриэн и профессор Брайан Кокс приглашают нас в космическое путешествие - наше удивительную ночное небо.-Список серий
01. В этой серии они займутся поиском доказательств жизни на Марсе и попросят зрителей о помощи, чтобы исследовать неизведанные области поверхности Красной планеты. Лиз Бонин, в прямом эфире из управления полетами NASA, сообщает последние данные о Curiosity Rover, в то время как Марк Томпсон даст нам советы о том, как наблюдать спутники Юпитера.
02. Дара и Брайан продолжают своё путешествие по ночному небу и попытаются открыть тайну происхождения Вселенной, глядя через миллионы световых лет в глубины космоса. Между тем, Марк Томпсон показывает, что можно извлечь из цвета звезд, а в NASA команда из специалистов строят крупнейший космический телескоп в мире, инструмент, который будет в 100 раз более мощным, чем Хаббл.
03. В заключительной серии ночных астрономических приключения, Брайан и Дара обсудят вопросы метеоров, комет и астероидов и попробуют показать, как исследования этих объектов помогают в решении вопросов о происхождении жизни на Земле. Лиз Бонин поговорит с командой ученых НАСА, которым поручено отслеживать любые космические объекты, находящиеся на околоземной орбите. Узнаем как можно создать астероид на Земле и посмотрим на звёздное небо в телескоп Гершеля.
-Качество: SATRip
Контейнер: AVI
Видео кодек: XviD
Аудио кодек: AC3
Видео: 720x400 25fps 1800kbps
Аудио: AC3 2ch, 48kHz, 192 kbps-BBC: Постигая звёздное небо / Stargazing Live [сезон 3 серия 1-3 из 3]
BBC: Постигая звёздное небо / Stargazing Live [сезон 4 серия 1-3 из 3]-

MediaInfo

Format : AVI
Format/Info : Audio Video Interleave
File size : 686 MiB
Duration : 48mn 1s
Overall bit rate : 1 998 Kbps
Writing application : TMPGEnc Video Mastering Works 5 Version. 5.0.6.38
Writing library : TMPGEnc Video Mastering Works 5 Version. 5.0.6.38
Video
ID : 0
Format : MPEG-4 Visual
Format profile : Advanced [email protected]
Format settings, BVOP : 2
Format settings, QPel : No
Format settings, GMC : No warppoints
Format settings, Matrix : Default (H.263)
Muxing mode : Packed bitstream
Codec ID : XVID
Codec ID/Hint : XviD
Duration : 48mn 1s
Bit rate : 1 798 Kbps
Width : 720 pixels
Height : 400 pixels
Display aspect ratio : 16:9
Frame rate : 25.000 fps
Color space : YUV
Chroma subsampling : 4:2:0
Bit depth : 8 bits
Scan type : Progressive
Compression mode : Lossy
Bits/(Pixel*Frame) : 0.250
Stream size : 618 MiB (90%)
Writing library : XviD 73
Audio
ID : 1
Format : AC-3
Format/Info : Audio Coding 3
Mode extension : CM (complete main)
Format settings, Endianness : Big
Codec ID : 2000
Duration : 48mn 1s
Bit rate mode : Constant
Bit rate : 192 Kbps
Channel(s) : 2 channels
Channel positions : Front: L R
Sampling rate : 48.0 KHz
Compression mode : Lossy
Stream size : 66.0 MiB (10%)
Alignment : Aligned on interleaves
Interleave, duration : 240 ms (6.00 video frames)
Interleave, preload duration : 224 ms
-Скриншоты--Время раздачи: 24/7 (круглосуточно)
Яндекс.Метрика
Рейтинг@Mail.ru