Боцман Чайка (2014) HDTVRip (серии 1-4 из 4)

 

Создавать темы 16-Авг-2015 01:18

- Боцман Чайка (2014) HDTVRip (серии 1-4 из 4) - Производство: Россия, Студия «Арт-Базар»
Жанр: комедия
Режиссер: Роман Славин
Актеры: Дмитрий Харатьян, Армен Джигарханян, Ада Роговцева, Нонна Гришаева, Ирина Апексимова, Татьяна Догилева, Дарья Волга, Кристина Бабушкина, Екатерина Дурова, Ольга Тумайкина, Мария Сёмкина, Артём Цуканов, Дарья Мельникова, Леонид Лейкин, Юлия Куварзина, Светлана Зейналова, Виталина Библив, Лаура Кеосаян
Описание:
Бравый моряк Иван Христофорович — мужчина в полном расцвете сил и известный бабник, срочно отправляется на поиски невесты. Правда, эта спешка никак не связана с тем, что боцман очень хочет распрощаться с вольной жизнью. Много лет он служит на рыболовецком судне и не мыслит свою жизнь без моря. А тут вдруг руководство объявило о сокращении, и под него попадают все без исключения холостяки. Начальник дает Ивану Христофоровичу на заключение брака всего две недели. В поисках спутницы Чайке всегда готовы помочь мама — педагог по жизни Лидия Павловна, — и его верный «оруженосец», матрос Коля Воробейчик, хотя у того в семейной жизни сплошные неурядицы. Казалось бы, черноморскому ловеласу найти жену — раз плюнуть, но каждая из кандидаток в невесты — тот еще сюрприз! Измученный поисками суженой, боцман вынужден сделать ставку на влюбленную в него физручку, «женщину-танк» Варвару Порывай. Но в ночь перед свадьбой происходит событие, которое все переворачивает с ног на голову…-Продолжительность: ~00:44:00 серия
Качество видео: HDTVRip
Видео: Xvid, 720x400, ~1557 Кбит/сек
Аудио: AC3, 2 ch, 192 Кбит/сек

Доп.Информация:

Общее
Полное имя                               : D:\Боцман Чайка.2014.HDTVRip\01.Bocman.Chayka.2014.HDTVRip.Files-x.avi
Формат                                   : AVI
Формат/Информация                        : Audio Video Interleave
Размер файла                             : 550 Мбайт
Продолжительность                        : 43 м.
Общий поток                              : 1759 Кбит/сек
Программа кодирования                    : VirtualDubMod 1.5.10.3 | [url=http://www.virtualdub-fr.org]www.virtualdub-fr.org[/url] || (build 2550/release)
Библиотека кодирования                   : VirtualDubMod build 2550/release
Видео
Идентификатор                            : 0
Формат                                   : MPEG-4 Visual
Профиль формата                          : Advanced [email protected]
Параметр BVOP формата                    : 1
Параметр QPel формата                    : Нет
Параметр GMC формата                     : Без точки перехода
Параметр матрицы формата                 : Выборочная
Идентификатор кодека                     : XVID
Идентификатор кодека/Подсказка           : XviD
Продолжительность                        : 43 м.
Битрейт                                  : 1557 Кбит/сек
Ширина                                   : 720 пикселей
Высота                                   : 400 пикселей
Соотношение сторон                       : 16:9
Частота кадров                           : 25,000 кадров/сек
Цветовое пространство                    : YUV
Субдискретизация насыщенности            : 4:2:0
Битовая глубина                          : 8 бит
Тип развёртки                            : Прогрессивная
Метод сжатия                             : С потерями
Бит/(Пиксели*Кадры)                      : 0.216
Размер потока                            : 487 Мбайт (89%)
Библиотека кодирования                   : XviD 73
Аудио
Идентификатор                            : 1
Формат                                   : AC-3
Формат/Информация                        : Audio Coding 3
Расширение режима                        : CM (complete main)
Параметр Endianness формата              : Big
Идентификатор кодека                     : 2000
Продолжительность                        : 43 м.
Вид битрейта                             : Постоянный
Битрейт                                  : 192 Кбит/сек
Каналы                                   : 2 канала
Расположение каналов                     : Front: L R
Частота                                  : 48,0 КГц
Метод сжатия                             : С потерями
Размер потока                            : 60,0 Мбайт (11%)
Выравнивание                             : Разделение по промежуткам
Продолжительность промежутка             : 40  мс. (1,00 видеокадр)
Время предзагрузки промежутка            : 500  мс.
Скриншоты:
Время раздачи: 24/7 (до 5 скачавших)
Яндекс.Метрика
Рейтинг@Mail.ru