BBC: Гениальные изобретения. Серия 4 / The Genius of Invention (2013) SATRip

 

Создавать темы 15-Дек-2013 03:16

BBC: Гениальные изобретения. Серия 4 / The Genius of Invention (2013) SATRip- Режиссер / Телекомпания: BBC & Наука 2.0
Русское название: Гениальные изобретения
Оригинальное название: The Genius of Invention
Год выпуска: 2013
Жанр: Документальный, научно-познавательный
Выпущено: Великобритания, BBC
Описание:
Удивительная история открытия электричества: одной из самых интересных и невероятных загадок природы. В документальном фильме представлена история самых первых исследователей, раскрывавших загадки электричества.
Режиссер: Виктория Белл
Ведущие: Michael J. Mosley, Mark Miodownik, Cassie Newland
В выпуске: 04. Визуальные изображения / Visual Image
Озвучено: Видеофильм ТВ
Перевод: Двуголосый закадровый
Продолжительность: 00:49:25
Видеокодек: XVID
Качество видео: SATRip
Битрейт видео: ~1750 kb/s
Размер кадра: 720 x 400
Аудиокодек: AC-3, 2.0ch.
Битрейт аудио: 384 kb/s

MediaInfo:

Формат : AVI
Формат/Информация : Audio Video Interleave
Размер файла : 758 Мбайт
Продолжительность : 49 м.
Общий поток : 2143 Кбит/сек
Название фильма : 04. Visual Image
Режиссёр : SATRip by Thunder
Программа кодирования : VirtualDubMod 1.5.10.3 | www.virtualdub-fr.org || (build 2550/release)
Формат оригинала/Имя : Documentary
Видео
Идентификатор : 0
Формат : MPEG-4 Visual
Профиль формата : Advanced [email protected]
Параметр BVOP формата : 2
Параметр QPel формата : Нет
Параметр GMC формата : Без точки перехода
Параметр матрицы формата : Default (H.263)
Идентификатор кодека : XVID
Идентификатор кодека/Подсказка : XviD
Продолжительность : 49 м.
Битрейт : 1750 Кбит/сек
Ширина : 720 пикселей
Высота : 400 пикселей
Соотношение сторон : 16:9
Частота кадров : 25,000 кадров/сек
Цветовое пространство : YUV
Субдискретизация насыщенности : 4:2:0
Битовая глубина : 8 бит
Тип развёртки : Прогрессивная
Метод сжатия : С потерями
Бит/(Пиксели*Кадры) : 0.243
Размер потока : 619 Мбайт (82%)
Библиотека кодирования : XviD 1.2.1 (UTC 2008-12-04)
Аудио
Идентификатор : 1
Формат : AC-3
Формат/Информация : Audio Coding 3
Расширение режима : CM (complete main)
Идентификатор кодека : 2000
Продолжительность : 49 м.
Вид битрейта : Постоянный
Битрейт : 384 Кбит/сек
Каналы : 2 канала
Расположение каналов : Front: L R
Частота : 48,0 КГц
Битовая глубина : 16 бит
Метод сжатия : С потерями
Размер потока : 136 Мбайт (18%)
Выравнивание : Разделение по промежуткам
Продолжительность промежутка : 40 мс. (1,00 видеокадр)
Время предзагрузки промежутка : 500 мс.
Скриншоты:

Яндекс.Метрика
Рейтинг@Mail.ru