Шутки в сторону / De l\'autre côté du périph (Давид Шарон / David Charhon) [2012, Франция, комедия, криминал, детектив, BDRip 1080p] Dub + Original (French) + Subs (Rus, French)

 

Создавать темы 15-Дек-2013 03:11

Шутки в сторонуDe l'autre côté du périph- Страна: Франция
Жанр: комедия, криминал, детектив
Год выпуска: 2012
Продолжительность: 01:34:44-Перевод: Профессиональный (полное дублирование) [Лицензия]
Оригинальная аудиодорожка: французский
Субтитры: русские (Russian), French (French),
Режиссер: Давид Шарон / David Charhon
В ролях: Омар Си, Лоран Лафитт, Сабрина Уазани, Лионель Абелански, Юсеф Хаджди, Максим Мотт, Лео Леотье, Андре Маркон, Забу Брайтман, Патрик Боннель, Рош Лейбовичи, Ребекка Азан-Описание: Усман, дерзкий коп из парижского пригорода, и Франсуа, амбициозный столичный полицейский, объединяют усилия в расследовании убийства жены большого чиновника. Усман и Франсуа - разные. Усман живет по законам комедий с Эдди Мерфи, Франсуа обожает Бельмондо в «Профессионале» и «Смертельное оружие». Но расхождение в киновкусах - ничто, когда на кону громкое разоблачение коррупции в самых верхах и, конечно, дружба! Один плюс один = команда, а шутки - в сторону!-
-

Доп. Информация

Сценарий: Давид Шарон / David Charhon, Реми Фур / Remy Four, Жюльен Уор / Julien War, Эрик Альтмайер / Eric Altmeyer, Николас Альтмайер / Nicolas Altmeyer
Продюсер: Эрик Альтмайер / Eric Altmeyer, Николас Альтмайер / Nicolas Altmeyer
Оператор: Ален Дюплантье / Alain Duplantier
Композитор: Людовик Бурсе / Ludovic Bource
Сборы в России: $1 321 054
Сборы в мире: $24 774 264
Мировая премьера: 19 декабря 2012
Релиз на DVD: 17 июня 2013,
«Новый Диск»

Релиз на Blu-ray: 17 июня 2013,
«Новый Диск»
-Качество: BDRip 1080p (Исходник Blu-Ray Remux (1080p) )
Контейнер: MKV
Видео: AVC, 1920x804 (2.40:1), 13125 kbps, 24 fps, 0,354 bpp
Аудио №1: русский / DTS / 5.1 / 48 kHz / 1510 kbps / 24 bit ||
Аудио №2: французский / DTS / 5.1 / 48 kHz / 1510 kbps / 16 bit
Формат субтитров: softsub (SRT)
Навигация по главам: есть--

Media Info

General
Unique ID : 172206065959322727591622636606289184712 (0x818DAE913C4BA942806B02B0504187C8)
Complete name : G:\Shutki.v.storonu.2012.D.BDRip.1080p.mkv
Format : Matroska
Format version : Version 2
File size : 10.9 GiB
Duration : 1h 34mn
Overall bit rate : 16.5 Mbps
Encoded date : UTC 2013-12-14 18:11:55
Writing application : mkvmerge v5.8.0 ('No Sleep / Pillow') built on Sep 2 2012 15:37:04
Writing library : libebml v1.2.3 + libmatroska v1.3.0
Video
ID : 1
Format : AVC
Format/Info : Advanced Video Codec
Format profile : [email protected]
Format settings, CABAC : Yes
Format settings, ReFrames : 5 frames
Codec ID : V_MPEG4/ISO/AVC
Duration : 1h 34mn
Bit rate : 13.1 Mbps
Width : 1 920 pixels
Height : 804 pixels
Display aspect ratio : 2.40:1
Frame rate : 24.000 fps
Color space : YUV
Chroma subsampling : 4:2:0
Bit depth : 8 bits
Scan type : Progressive
Bits/(Pixel*Frame) : 0.354
Stream size : 8.69 GiB (80%)
Writing library : x264 core 138 r2358 9e941d1
Encoding settings : cabac=1 / ref=5 / deblock=1:-1:-1 / analyse=0x3:0x113 / me=umh / subme=10 / psy=1 / psy_rd=1.00:0.15 / mixed_ref=1 / me_range=48 / chroma_me=1 / trellis=2 / 8x8dct=1 / cqm=0 / deadzone=21,11 / fast_pskip=1 / chroma_qp_offset=-3 / threads=12 / lookahead_threads=3 / sliced_threads=0 / nr=0 / decimate=1 / interlaced=0 / bluray_compat=0 / constrained_intra=0 / bframes=12 / b_pyramid=2 / b_adapt=2 / b_bias=0 / direct=3 / weightb=1 / open_gop=0 / weightp=2 / keyint=250 / keyint_min=24 / scenecut=40 / intra_refresh=0 / rc_lookahead=40 / rc=crf / mbtree=0 / crf=18.5 / qcomp=0.60 / qpmin=0 / qpmax=69 / qpstep=4 / vbv_maxrate=50000 / vbv_bufsize=62500 / crf_max=0.0 / nal_hrd=none / ip_ratio=1.40 / pb_ratio=1.30 / aq=2:1.00
Language : English
Default : Yes
Forced : No
Audio #1
ID : 2
Format : DTS
Format/Info : Digital Theater Systems
Codec ID : A_DTS
Duration : 1h 34mn
Bit rate mode : Constant
Bit rate : 1 510 Kbps
Channel(s) : 6 channels
Channel positions : Front: L C R, Side: L R, LFE
Sampling rate : 48.0 KHz
Bit depth : 24 bits
Compression mode : Lossy
Stream size : 1 023 MiB (9%)
Title : Russian
Language : Russian
Default : Yes
Forced : No
Audio #2
ID : 3
Format : DTS
Format/Info : Digital Theater Systems
Codec ID : A_DTS
Duration : 1h 34mn
Bit rate mode : Constant
Bit rate : 1 510 Kbps
Channel(s) : 6 channels
Channel positions : Front: L C R, Side: L R, LFE
Sampling rate : 48.0 KHz
Bit depth : 16 bits
Compression mode : Lossy
Stream size : 1 023 MiB (9%)
Title : French
Language : French
Default : No
Forced : No
Text #1
ID : 4
Format : UTF-8
Codec ID : S_TEXT/UTF8
Codec ID/Info : UTF-8 Plain Text
Title : Russian
Language : Russian
Default : No
Forced : No
Text #2
ID : 5
Format : UTF-8
Codec ID : S_TEXT/UTF8
Codec ID/Info : UTF-8 Plain Text
Title : French
Language : French
Default : No
Forced : No
Menu
00:00:00.000 : :00:00:00.000
00:06:09.250 : :00:06:09.250
00:14:14.332 : :00:14:14.332
00:21:18.458 : :00:21:18.458
00:28:37.083 : :00:28:37.083
00:36:51.250 : :00:36:51.250
00:44:17.333 : :00:44:17.333
00:53:46.125 : :00:53:46.125
01:02:25.125 : :01:02:25.125
01:12:11.167 : :01:12:11.167
01:20:24.332 : :01:20:24.332
01:30:10.542 : :01:30:10.542

х264

x264 [info]: frame I:1019 Avg QP:16.38 size:235467
x264 [info]: frame P:29085 Avg QP:17.72 size:107233
x264 [info]: frame B:106311 Avg QP:19.72 size: 58310
x264 [info]: consecutive B-frames: 2.4% 2.6% 7.5% 15.5% 15.4% 44.5% 5.5% 1.1% 2.3% 0.4% 1.2% 0.7% 0.7%
x264 [info]: mb I I16..4: 18.2% 66.4% 15.4%
x264 [info]: mb P I16..4: 8.0% 31.8% 4.0% P16..4: 24.5% 14.9% 7.2% 0.0% 0.0% skip: 9.6%
x264 [info]: mb B I16..4: 1.5% 8.2% 0.5% B16..8: 35.2% 10.5% 3.0% direct:12.6% skip:28.5% L0:45.0% L1:41.8% BI:13.1%
x264 [info]: 8x8 transform intra:75.9% inter:64.9%
x264 [info]: direct mvs spatial:100.0% temporal:0.0%
x264 [info]: coded y,uvDC,uvAC intra: 83.9% 87.0% 72.9% inter: 34.6% 44.2% 21.2%
x264 [info]: i16 v,h,dc,p: 18% 10% 30% 42%
x264 [info]: i8 v,h,dc,ddl,ddr,vr,hd,vl,hu: 13% 10% 18% 8% 10% 11% 10% 10% 10%
x264 [info]: i4 v,h,dc,ddl,ddr,vr,hd,vl,hu: 28% 9% 10% 7% 10% 10% 9% 8% 8%
x264 [info]: i8c dc,h,v,p: 59% 14% 15% 12%
x264 [info]: Weighted P-Frames: Y:2.4% UV:1.4%
x264 [info]: ref P L0: 46.6% 10.4% 22.7% 10.2% 9.5% 0.7% 0.0%
x264 [info]: ref B L0: 70.1% 20.8% 7.2% 1.9%
x264 [info]: ref B L1: 89.3% 10.7%
x264 [info]: kb/s:13452.30

Скриншоты


Яндекс.Метрика
Рейтинг@Mail.ru