Черепашки-ниндзя / TMNT (2007) BDRip-AVC | 60 fps

 

Создавать темы 14-Авг-2015 12:12

«Raising Shell In 2007»- Информация о фильме
Название: Черепашки-ниндзя
Оригинальное название: TMNT
Год выхода: 2007
Жанр: Мультфильм, фантастика, фэнтези, боевик, комедия, приключения, семейный
Режиссер: Кевин Манро
Сценарий: Кевин Манро, Питер Лэрд, Кевин Истмэн
Продюсер: Томас К. Грэй, Пол Ванг, Майкл Дж. Арнольд
Персонажев озвучивали: Нолан Норт, Джеймс Арнольд Тейлор, Митчел Уитфилд, Мики Келли, Мако, Сара Мишель Геллар, Крис Эванс, Патрик Стюарт, Чжан Цзыи, Лоренс Фишбёрн--О фильме:
После поражения их старейшего врага Шредера, семья черепашек распалась. Кроме борьбы за единство семьи их сенсей Сплинтер обеспокоен еще и тем, что в Нью-Йорке происходит что-то странное. Техноиндустриалист Максимилиан Уинтерс готовит армию древних монстров, остановить которую сможет только суперкоманда бойцов ниндзя — Леонардо, Микеланджело, Донателло и Рафаэль! Вместе со своими прежними соратниками Эйприл О`Нил и Кейси Джонсом Черепашки снова в сражаются за свои жизни, им снова предстоит противостоять таинственному клану Фут, поставившему свои собственные способности ниндзя на службу интересам Уинтера.-
СЭМПЛ-Страна: США, Великобритания
Продолжительность: 01:26:50--Файл
Кодек: MPEG4/ISO/AVC H.264
Формат: MKV
Качество: BDRip-AVC
Видео: 1024x424 (2.40:1) | at 59,940 fps | ~ 5.7 Мбит/сек
Аудио: AC3 | 5.1 | 48 kHz | 640 kbps | 16 bit | Дубляж |

MedifInfo

Video
ID : 1
Format : AVC
Format/Info : Advanced Video Codec
Format profile : [email protected]
Format settings, CABAC : Yes
Format settings, ReFrames : 9 frames
Codec ID : V_MPEG4/ISO/AVC
Duration : 1h 26mn
Bit rate : 5 738 Kbps
Width : 1 024 pixels
Height : 424 pixels
Display aspect ratio : 2.40:1
Frame rate : 59.940 fps
Color space : YUV
Chroma subsampling : 4:2:0
Bit depth : 8 bits
Scan type : Progressive
Bits/(Pixel*Frame) : 0.220
Stream size : 3.40 GiB (88%)
Writing library : x264 core 146 r2538 121396c
Encoding settings : cabac=1 / ref=9 / deblock=1:0:0 / analyse=0x3:0x113 / me=umh / subme=11 / psy=1 / psy_rd=0.00:0.00 / mixed_ref=1 / me_range=42 / chroma_me=1 / trellis=2 / 8x8dct=1 / cqm=0 / deadzone=21,11 / fast_pskip=1 / chroma_qp_offset=0 / threads=12 / lookahead_threads=1 / sliced_threads=0 / nr=0 / decimate=1 / interlaced=0 / bluray_compat=0 / constrained_intra=0 / bframes=16 / b_pyramid=2 / b_adapt=1 / b_bias=0 / direct=1 / weightb=1 / open_gop=0 / weightp=2 / keyint=250 / keyint_min=25 / scenecut=40 / intra_refresh=0 / rc=2pass / mbtree=0 / bitrate=5738 / ratetol=1.0 / qcomp=0.60 / qpmin=0 / qpmax=69 / qpstep=4 / cplxblur=20.0 / qblur=0.5 / ip_ratio=1.40 / pb_ratio=1.30 / aq=1:1.00
Language : English
Default : Yes
Forced : No
Audio
ID : 2
Format : AC-3
Format/Info : Audio Coding 3
Mode extension : CM (complete main)
Codec ID : A_AC3
Duration : 1h 26mn
Bit rate mode : Constant
Bit rate : 640 Kbps
Channel(s) : 6 channels
Channel positions : Front: L C R, Side: L R, LFE
Sampling rate : 48.0 KHz
Bit depth : 16 bits
Compression mode : Lossy
Stream size : 398 MiB (10%)
Language : Russian
Default : Yes
Forced : No
Яндекс.Метрика
Рейтинг@Mail.ru