[ Сегодня на трекере фрилич! Идет свободное скачивание без начисления Download ]

Ва-банк / Vabank (Юлиуш Махульский)[1981,комедия, HDTVRip] от New-Team

 

Создавать темы 15-Дек-2013 02:43

Страна: Польша
Производство: Zespol Filmowy "Kadr"
Жанр: комедия
Год выпуска: 1981
Продолжительность: 01:44:38
Перевод: Профессиональный (Двухголосый закадровый) (Мастер Тэйп)
Оригинальная аудиодорожка: нет
Cубтитры: нет
Режиссер: Юлиуш Махульский / Juliusz Machulski
В ролях:
Ян Махульский, Леонард Петрашак, Витольд Пыркош, Эва Шикульска, Кжиштоф Кершновски, Здзислав Кузьняр, Юзеф Пара, Elzbieta Zajacówna, Яцек Хмельник, Зофиа Харевич...
Описание:
Варшава, октябрь 1934 года. 49-летний широко известный в криминальных кругах медвежатник по имени Хенрик Квинто выходит из тюрьмы, в которой провёл последние шесть лет. У ворот Квинто с шампанским торжественно встречают два юных восторженных почитателя его криминального таланта — двоюродные братья Мокс и Нута, мечтающие заполучить легендарного взломщика сейфов Квинто в партнёры, тем более что им в начале фильма ловко удалось ограбить ювелирный магазин. Хенрик абсолютно сбивает их с толку, демонстрируя мундштук от музыкальной трубы, уверяя в своей полной непричастности к славе легендарного грабителя банков. Сбитые с толку братья на всякий случай сообщают герою адрес автомастерской, в которой он может их найти, если «пан Музыкант захочет сыграть с ними вместе»…- -Исходник: HDTV 720p
Тип релиза: HDTVRip
Контейнер: AVI
Видео: 656x368 (16:9), 25 fps, XviD ~ 859 kbps avg, 0.142 bit/pixel
Аудио: 48 kHz, MP3 2.0, 128 kbps

MediaInfo

Общее
Полное имя : Vabank.1981.HDTVDRip-745_[New-team]_by_AVP_Studio.avi
Формат : AVI
Формат/Информация : Audio Video Interleave
Размер файла : 746 Мбайт
Продолжительность : 1 ч. 44 м.
Общий поток : 997 Кбит/сек
Программа кодирования : VirtualDubModRus 1.5.10.2 (build 2542/release)
Библиотека кодирования : VirtualDubMod build 2542/release
Видео
Идентификатор : 0
Формат : MPEG-4 Visual
Профиль формата : Advanced [email protected]
Параметр BVOP формата : 1
Параметр QPel формата : Нет
Параметр GMC формата : Без точки перехода
Параметр матрицы формата : Выборочная
Идентификатор кодека : XVID
Идентификатор кодека/Подсказка : XviD
Продолжительность : 1 ч. 44 м.
Битрейт : 859 Кбит/сек
Ширина : 656 пикселей
Высота : 368 пикселей
Соотношение сторон : 16:9
Частота кадров : 25,000 кадров/сек
Цветовое пространство : YUV
Субдискретизация насыщенности : 4:2:0
Битовая глубина : 8 бит
Тип развёртки : Прогрессивная
Метод сжатия : С потерями
Бит/(Пиксели*Кадры) : 0.142
Размер потока : 643 Мбайт (86%)
Библиотека кодирования : XviD 73
Аудио
Идентификатор : 1
Формат : MPEG Audio
Версия формата : Version 1
Профиль формата : Layer 3
Идентификатор кодека : 55
Идентификатор кодека/Подсказка : MP3
Продолжительность : 1 ч. 44 м.
Вид битрейта : Постоянный
Битрейт : 128 Кбит/сек
Каналы : 2 канала
Частота : 48,0 КГц
Метод сжатия : С потерями
Размер потока : 95,8 Мбайт (13%)
Выравнивание : Соединение по промежуткам
Продолжительность промежутка : 40 мс. (1,00 видеокадр)
Время предзагрузки промежутка : 504 мс.
Библиотека кодирования : LAME3.99r
Настройки программы : -m s -V 4 -q 2 -lowpass 17 -b 128

Скриншоты

Это любопытно

Duńczyk (Дуньчик) — фамилия героя Витольда Пыркоша, а не прозвище. Тем не менее, при переводе этого и следующего фильмов на русский язык использовался русский перевод этого слова — Датчанин.
Сцены танца Датчанина с Натальей в конце фильма (предпоследний эпизод) в сценарии не было. Со стороны Витольда Пыркоша это была чистейшая импровизация (на съёмки он в этот день пришёл не вполне трезвый).
Датчанин говорит, что если бы они «провернули» дело несколько месяцев назад, то поехал бы в Италию на чемпионат мира по футболу. В 1934 году в Италии действительно проходил чемпионат мира по футболу, но поляки отказались от участия. Сообщники говорят, что ему придётся ждать ещё лет 40, прежде чем Польша поедет на чемпионат мира. Через 40 лет после событий фильма сборная Польши действительно выступила успешно, выиграв бронзу чемпионата.
Яндекс.Метрика
Рейтинг@Mail.ru