[ Сегодня на трекере фрилич! Идет свободное скачивание без начисления Download ]

Восхождение Юпитер / Jupiter Ascending (2015) BDRip 720p | 60fps

 

Создавать темы 12-Авг-2015 21:45

Восхождение Юпитер / Jupiter Ascending (2015) BDRip 720p | 60fps«Expand your universe»- Год выхода: 2015
Жанр: Фантастика, боевик, приключения
Режиссер: Энди Вачовски, Лана Вачовски
Продюсер: Грант Хилл, Энди Вачовски, Лана Вачовски
В ролях: Мила Кунис, Ченнинг Татум, Дуглас Бут, Шон Бин, Эдди Редмэйн, Джеймс Д’Арси, Терри Гиллиам, Ванесса Кирби, Мария Дойл Кеннеди, Пэ Ду На
Описание фильма:
Юпитер Джонс родилась под ночным небом, и все знаки предсказывали, что девочке предстоят великие свершения. Юпитер выросла и каждый день видит во сне звезды, но просыпается в жесткой реальности, где она работает уборщицей и моет туалеты. Личная жизнь Юпитер тоже оставляет желать лучшего, пока девушка не встречает Кейна. Кейн, бывший военный охотник, прибывает на Землю, чтобы отыскать Юпитер и раскрыть девушке ее истинное предназначение. Благодаря своим генетическим особенностям Юпитер становится претенденткой невероятного наследия, способного изменить равновесие во Вселенной.
Страна: США, Великобритания, Австралия
Студия: Warner Bros. Pictures, Anarchos Productions Inc.
Продолжительность: 02:07:34
Перевод: Дублированный (Лицензия)
Субтитры: Отсутствуют
Дата мировой премьеры: 27 января 2015
Дата российской премьеры: 5 февраля 2015, «Каро-Премьер»
Дата выхода DVD релиза: 14 мая 2015, «CP Дистрибуция»
Дата выхода Blu-Ray релиза: 14 мая 2015, «CP Дистрибуция»
Файл
Формат: MKV
Кодек: MPEG-4 AVC/H.264
Качество: BDRip 720p
Видео: ~ 5258 Кбит/сек, 1280 x 544, 59.940 кадров/сек
Аудио: AC3 5.1, 48.0 KHz, 448 Кбит/сек - Русский

MediaInfo

Общее
Уникальный идентификатор : 188629638451638112505945801065326668423 (0x8DE8BF357292281B855FA8A6DF3F6A87)
Полное имя : D:\Торренты\Jupiter Ascending 60fps.mkv
Формат : Matroska
Версия формата : Version 2
Размер файла : 5,19 Гбайт
Продолжительность : 2 ч. 7 м.
Общий поток : 5822 Кбит/сек
Дата кодирования : UTC 2015-08-08 12:18:00
Программа кодирования : mkvmerge v6.1.0 ('Old Devil') built on Mar 4 2013 09:10:42
Библиотека кодирования : libebml v1.3.0 + libmatroska v1.4.0
Видео
Идентификатор : 1
Формат : AVC
Формат/Информация : Advanced Video Codec
Профиль формата : [email protected]
Параметр CABAC формата : Да
Параметр ReFrames формата : 6 кадров
Идентификатор кодека : V_MPEG4/ISO/AVC
Продолжительность : 2 ч. 7 м.
Битрейт : 5258 Кбит/сек
Ширина : 1280 пикселей
Высота : 544 пикселя
Соотношение сторон : 2,35:1
Режим частоты кадров : Постоянный
Частота кадров : 59,880 кадров/сек
Частота кадров в оригинале : 59,940 кадров/сек
Цветовое пространство : YUV
Субдискретизация насыщенности : 4:2:0
Битовая глубина : 8 бит
Тип развёртки : Прогрессивная
Бит/(Пиксели*Кадры) : 0.126
Размер потока : 4,69 Гбайт (90%)
Библиотека кодирования : x264 core 130 r2273 b3065e6
Настройки программы : cabac=1 / ref=6 / deblock=1:0:0 / analyse=0x3:0x133 / me=umh / subme=8 / psy=1 / psy_rd=1.00:0.15 / mixed_ref=1 / me_range=20 / chroma_me=1 / trellis=2 / 8x8dct=1 / cqm=0 / deadzone=21,11 / fast_pskip=0 / chroma_qp_offset=-3 / threads=6 / lookahead_threads=2 / sliced_threads=0 / nr=0 / decimate=0 / interlaced=0 / bluray_compat=0 / constrained_intra=0 / bframes=8 / b_pyramid=2 / b_adapt=2 / b_bias=0 / direct=1 / weightb=1 / open_gop=0 / weightp=2 / keyint=250 / keyint_min=25 / scenecut=40 / intra_refresh=0 / rc=crf / mbtree=0 / crf=18.0 / qcomp=0.63 / qpmin=10 / qpmax=51 / qpstep=4 / ip_ratio=1.40 / pb_ratio=1.30 / aq=1:1.20
Default : Да
Forced : Нет
Аудио
Идентификатор : 2
Формат : AC-3
Формат/Информация : Audio Coding 3
Расширение режима : CM (complete main)
Параметр Endianness формата : Big
Идентификатор кодека : A_AC3
Продолжительность : 2 ч. 7 м.
Вид битрейта : Постоянный
Битрейт : 448 Кбит/сек
Каналы : 6 каналов
Расположение каналов : Front: L C R, Side: L R, LFE
Частота : 48,0 КГц
Битовая глубина : 16 бит
Метод сжатия : С потерями
Размер потока : 409 Мбайт (8%)
Default : Да
Forced : Нет

Скриншоты:

Яндекс.Метрика
Рейтинг@Mail.ru