Безумный Макс: Дорога ярости / Mad Max: Fury Road (2015) WEB-DL [H.264/1080p-LQ]

 

Создавать темы 10-Авг-2015 22:59

-Безумный Макс: Дорога ярости / Mad Max: Fury Road (2015) WEB-DL [H.264/1080p-LQ]«Какой чудесный день»- Производство: Австралия, США / Kennedy Miller Productions, Village Roadshow Pictures, Village Roadshow Pictures
Жанр: боевик, фантастика, приключения
Режиссер: Джордж Миллер
Продюсер: Джордж Миллер, Даг Митчелл, П.Дж. Вотен
Актеры: Том Харди, Шарлиз Терон, Николас Холт, Хью Кияс-Бёрн, Райли Кио, Роузи Хантингтон-Уайтли, Зои Кравиц, Эбби Ли, Кортни Итон, Нэйтан Джонс
Описание:
Прошло не так много времени, после того как Макс Рокатански, отомстив за смерть жены и сына, покинул ряды «Основного силового патруля». Теперь он в одиночку скитается по миру, который медленно умирает от последствий нефтяного кризиса и глобальной войны, унесшей жизни большинства жителей Земли. Автомобиль «Перехватчик» — единственное, что у него осталось от прошлой жизни. На нем он преодолевает огромные расстояния, перемещаясь по пост-апокалиптической пустоши, на которой ему предстоит столкнуться с жестокими и безжалостными войнами. Сможет ли он сохранить свою жизнь в смертельной схватке с отъявленными головорезами?..-

Рейтинг MPAA: R - Детям до 17 лет обязательно присутствие родителей
Дата мировой премьеры: 7 мая 2015
Дата российской премьеры: 14 мая 2015, «Каро-Премьер»
Дата выхода Blu-Ray/DVD релиза: 17 сентября 2015, «CP Дистрибуция»
Продолжительность: 02:00:21
Качество: WEB-DL (1080p)
Перевод: профессиональный (полное дублирование) (iTunes Russia)
Язык субтитров: русский, английский
Вид субтитров: вшитые, отключаемые
Видео: MPEG-4 AVC/H.264, 1912x792 (2,40:1), 4 340 kbps, 23.976 fps, 0.120 b/px
Аудио # 1: АС3, 6 ch, 384 kbps, 48 000 Hz - DUB - iTunes Russia
Аудио # 2: АС3, 6 ch, 384 kbps, 48 000 Hz - Original - iTunes US

MediaInfo

Общее
Уникальный идентификатор                 : 184362765505216369052089683455791814245 (0x8AB2FA215E2F13AEBE911A9F61A35665)
Полное имя                               : E:\MAD_MAX_WEB_DL_1080p_BLUEBIRD.mkv
Формат                                   : Matroska
Версия формата                           : Version 4 / Version 2
Размер файла                             : 4,38 Гбайт
Продолжительность                        : 2 ч. 0 м.
Общий поток                              : 5211 Кбит/сек
Название фильма                          : MAD_MAX_WEB_DL_1080p_BLUEBIRD
Дата кодирования                         : UTC 2015-08-10 19:18:02
Программа кодирования                    : mkvmerge v7.1.0 ('Good Love') 64bit built on Jul 27 2014 13:06:55
Библиотека кодирования                   : libebml v1.3.0 + libmatroska v1.4.1
Видео
Идентификатор                            : 1
Формат                                   : AVC
Формат/Информация                        : Advanced Video Codec
Профиль формата                          : [email protected]
Параметр CABAC формата                   : Да
Параметр ReFrames формата                : 5 кадров
Идентификатор кодека                     : V_MPEG4/ISO/AVC
Продолжительность                        : 2 ч. 0 м.
Битрейт                                  : 4340 Кбит/сек
Ширина                                   : 1912 пикселей
Высота                                   : 792 пикселя
Соотношение сторон                       : 2,40:1
Режим частоты кадров                     : Постоянный
Частота кадров                           : 23,976 кадра/сек
Цветовое пространство                    : YUV
Субдискретизация насыщенности            : 4:2:0
Битовая глубина                          : 8 бит
Тип развёртки                            : Прогрессивная
Бит/(Пиксели*Кадры)                      : 0.120
Размер потока                            : 3,65 Гбайт (83%)
Заголовок                                : MAD_MAX_WEB_DL_1080p_BLUEBIRD
Язык                                     : English
Default                                  : Да
Forced                                   : Нет
Цветовой диапазон                        : Limited
Основные цвета                           : BT.709
Характеристики трансфера                 : BT.709
Коэффициенты матрицы                     : BT.709
Аудио #1
Идентификатор                            : 2
Формат                                   : AC-3
Формат/Информация                        : Audio Coding 3
Расширение режима                        : CM (complete main)
Параметр Endianness формата              : Big
Идентификатор кодека                     : A_AC3
Продолжительность                        : 2 ч. 0 м.
Вид битрейта                             : Постоянный
Битрейт                                  : 384 Кбит/сек
Каналы                                   : 6 каналов
Расположение каналов                     : Front: L C R, Side: L R, LFE
Частота                                  : 48,0 КГц
Метод сжатия                             : С потерями
Размер потока                            : 331 Мбайт (7%)
Заголовок                                : [DUB] DD 5.1 @ 384 kbps iTunes Russia
Язык                                     : Russian
Default                                  : Да
Forced                                   : Нет
Аудио #2
Идентификатор                            : 3
Формат                                   : AC-3
Формат/Информация                        : Audio Coding 3
Расширение режима                        : CM (complete main)
Параметр Endianness формата              : Big
Идентификатор кодека                     : A_AC3
Продолжительность                        : 2 ч. 0 м.
Вид битрейта                             : Постоянный
Битрейт                                  : 384 Кбит/сек
Каналы                                   : 6 каналов
Расположение каналов                     : Front: L C R, Side: L R, LFE
Частота                                  : 48,0 КГц
Метод сжатия                             : С потерями
Размер потока                            : 331 Мбайт (7%)
Заголовок                                : [ORIGINAL] DD 5.1 @ 384 kbps iTunes USA
Язык                                     : English
Default                                  : Нет
Forced                                   : Нет
Текст #1
Идентификатор                            : 4
Формат                                   : UTF-8
Идентификатор кодека                     : S_TEXT/UTF8
Идентификатор кодека/Информация          : UTF-8 Plain Text
Заголовок                                : Forced
Язык                                     : Russian
Default                                  : Да
Forced                                   : Нет
Текст #2
Идентификатор                            : 5
Формат                                   : UTF-8
Идентификатор кодека                     : S_TEXT/UTF8
Идентификатор кодека/Информация          : UTF-8 Plain Text
Заголовок                                : Full-length
Язык                                     : Russian
Default                                  : Нет
Forced                                   : Нет
Текст #3
Идентификатор                            : 6
Формат                                   : UTF-8
Идентификатор кодека                     : S_TEXT/UTF8
Идентификатор кодека/Информация          : UTF-8 Plain Text
Заголовок                                : Full-length
Язык                                     : English
Default                                  : Нет
Forced                                   : Нет
Меню
00:00:00.000                             : en:1
00:10:42.000                             : en:2
00:19:06.000                             : en:3
00:30:13.000                             : en:4
00:42:55.000                             : en:5
00:49:33.000                             : en:6
00:59:55.000                             : en:7
01:13:02.000                             : en:8
01:22:08.000                             : en:9
01:30:02.000                             : en:10
01:40:39.000                             : en:11
01:49:12.000                             : en:12
01:53:05.000                             : en:13
Скриншоты:
Время раздачи: С 09:00 до 23:00 до 5 скачавших
Яндекс.Метрика
Рейтинг@Mail.ru