[ Сегодня на трекере фрилич! Идет свободное скачивание без начисления Download ]

Приключения мышонка / Rodencia y el Diente de la Princesa (Давид Бисбано / David Bisbano) [2013 г., мультфильм, семейный, DVDRip] Dub [Лицензия]

 

Создавать темы 14-Дек-2013 05:12

--Приключения мышонка / Rodencia y el Diente de la Princesa-- Производство: Перу, Аргентина
Год выпуска: 2013 г.
Жанр: мультфильм, семейный
Продолжительность: 01:23:58--Мировая премьера: 11 октября 2012
Российская премьера: 14 ноября 2013, «Top Film Distribution»
Релиз на DVD: 10 декабря 2013, «Lizard Cinema Trade»--Перевод: Профессиональный (полное дублирование) [Лицензия]--Режиссер: Давид Бисбано / David Bisbano--В ролях: Эрнан Браво, Наталия Росминати, Рикардо Эланис, Энрике Порсейана, Серджо Бермехо, Освальдо Салас, Гонсало Уртисбереа, Марсело Чиринос, Хосе Луис Пертикарини, Мария Елена Молина--Описание: Давным-давно, в густых и широких лесах стояло прекрасное королевство Роденсия — место, где обитали удивительные создания и могущественные волшебники. Приключение, которое произойдёт здесь, расскажет нам о любви между неуклюжим учеником мага маленьким мышонком Эдамом и красивой и уверенной мышкой Бри, которым придётся преодолеть много опасных препятствий, для того чтобы получить силу зубной феи и победить отряд крыс под командованием злого Ротекса, который вторгся в мирное мышиное царство. В таинственной глубине леса магия света и тьмы, любви и обиды столкнутся, а Эдам и Ротекс будут сражаться, и только один выйдет победителем.-- --Качество видео: DVDRip
Контейнер: AVI
Видео кодек: XviD
Аудио кодек: AC3
Видео: 720x320 (2.25:1), 25 fps, XviD build 50 ~1872 kbps avg, 0.33 bit/pixel
Аудио: 48 kHz, AC3 Dolby Digital, 3/2 (L,C,R,l,r) + LFE ch, ~448 kbps
Cубтитры: Отсутствуют
-

Media Info

Общее
Полное имя : D:\Torrent 2\Priklyucheniya.myshonka.2013.D.DVDRip.1400MB_[pirat.ca].avi
Формат : AVI
Формат/Информация : Audio Video Interleave
Размер файла : 1,37 Гбайт
Продолжительность : 1 ч. 23 м.
Общий поток : 2331 Кбит/сек
Программа кодирования : VirtualDubMod 1.5.10.3 | www.virtualdub-fr.org || (build 2550/release)
Библиотека кодирования : VirtualDubMod build 2550/release
Видео
Идентификатор : 0
Формат : MPEG-4 Visual
Профиль формата : Advanced [email protected]
Параметр BVOP формата : 2
Параметр QPel формата : Нет
Параметр GMC формата : Без точки перехода
Параметр матрицы формата : Выборочная
Идентификатор кодека : XVID
Идентификатор кодека/Подсказка : XviD
Продолжительность : 1 ч. 23 м.
Битрейт : 1873 Кбит/сек
Ширина : 720 пикселей
Высота : 320 пикселей
Соотношение сторон : 2,25:1
Частота кадров : 25,000 кадров/сек
Цветовое пространство : YUV
Субдискретизация насыщенности : 4:2:0
Битовая глубина : 8 бит
Тип развёртки : Прогрессивная
Метод сжатия : С потерями
Бит/(Пиксели*Кадры) : 0.325
Размер потока : 1,10 Гбайт (80%)
Библиотека кодирования : XviD 1.2.1 (UTC 2008-12-04)
Аудио
Идентификатор : 1
Формат : AC-3
Формат/Информация : Audio Coding 3
Расширение режима : CM (complete main)
Параметр Endianness формата : Big
Идентификатор кодека : 2000
Продолжительность : 1 ч. 23 м.
Вид битрейта : Постоянный
Битрейт : 448 Кбит/сек
Каналы : 6 каналов
Расположение каналов : Front: L C R, Side: L R, LFE
Частота : 48,0 КГц
Битовая глубина : 16 бит
Метод сжатия : С потерями
Размер потока : 269 Мбайт (19%)
Выравнивание : Разделение по промежуткам
Продолжительность промежутка : 40 мс. (1,00 видеокадр)
Время предзагрузки промежутка : 500 мс.

Скриншоты

Трейлер
Яндекс.Метрика
Рейтинг@Mail.ru