Уэйуорд Пайнс / Сосны / Wayward Pines / Сезон: 1 / Серии: 1-10 из 10 (М. Найт Шьямалан, Тим Хантер, Шарлота Силинг, Нимрод Антал) [2015, драма, триллер, WEB-DL 1080p] MVO (AlexFilm, LostFilm, NewStudio, BaibaKo, Fox) + Original + Subs (rus, eng)

 

Создавать темы 08-Авг-2015 16:47

--Уэйуорд Пайнс / Сосны / Wayward Pines-- Год выпуска: 2015
Страна: США
Жанр: драма, триллер, мистика
Продолжительность: ~ 00:43:00-Перевод:
Профессиональный (многоголосый закадровый) AlexFilm
Профессиональный (многоголосый закадровый) LostFilm
Профессиональный (многоголосый закадровый) NewStudio
Профессиональный (многоголосый закадровый) BaibaKo
Профессиональный (многоголосый закадровый) Fox-Режиссёр: М. Найт Шьямалан, Тим Хантер, Шарлота Силинг, Нимрод Антал
В ролях: Мэтт Диллон, Карла Гуджино, Джульетт Льюис, Мелисса Лео, Терренс Ховард, Шаннин Соссамон, Рид Даймонд, Тим Гриффин, Чарли Тахэн, Тоби Джонс и др.
Описание: Агент секретной службы Итан Берк приезжает в пасторальный городок Уэйуорд Пайнс в Айдахо, чтобы найти двух пропавших коллег. Но расследование вместо ответов приносит лишь новые вопросы. Что же происходит в Уэйуорд Пайнс?- -Ссылка на предыдущие и альтернативные раздачи-Качество: WEB-DL 1080p
Контейнер: MKV
Видео: AVC, 1920x1080(1.778:1), 23.976 fps, ~5039 kbps avg, 0.101 bit/pixel
Аудио rus: AC-3, 48 KHz, 6 ch, 384 kbps | AlexFilm
Аудио rus: AC-3, 48 KHz, 6 ch, 384 kbps | LostFilm
Аудио rus: AC-3, 48 KHz, 6 ch, 384 kbps | NewStudio
Аудио rus: AC-3, 48 KHz, 6 ch, 384 kbps | BaibaKo
Аудио rus: AC-3, 48 KHz, 2 ch, 192 kbps | Fox
Аудио eng: AC-3, 48 KHz, 6 ch, 384 kbps | original
Субтитры: русские (notabenoid), английские

Релиз

Монтаж, работа со звуком: Skyns61
Дорожка №1 получена наложением чистого Voiceover на центр оригинального AC3. За предоставленные войсоверы спасибо AlexFilm
Дорожка №2 получена наложением выделенного Voiceover от «LostFilm» на центр оригинального AC3.
Cубтитры: notabenoid 1-3 Vito_Feed, 4-10 yljka
Синхронизация субтитров: qqss44

Список серий

01. Где рай является домом /Where Paradise Is Home
02.Прошлую жизнь не обсуждать /Do Not Discuss Your Life Before
03. Наш город, наши правила /Our Town, Our Law
04. Один из старших риэлторов решил уйти на покой /One of Our Senior Realtors Has Chosen to Retire
05. Истина /The Truth
06. Выбор /Choices
07. Предательство /Betrayal
08. Самый дружелюбный город Земли /The Friendliest Place on Earth
09. Расплата /A Reckoning
10. Цикл /Cycle

MediaInfo

Общее
Уникальный идентификатор : 219804595358013043705166705094184751692 (0xA55CD3410DC39CE68CD3492B1D65524C)
Полное имя : G:\Films\Wayward.Pines.S01.A.L.N.B.F\Wayward.Pines.S01E01.1080p.WEB-DL.5xRus.Eng.DD5.1.mkv
Формат : Matroska
Версия формата : Version 4 / Version 2
Размер файла : 2,30 Гбайт
Продолжительность : 45 м.
Общий поток : 7289 Кбит/сек
Дата кодирования : UTC 2015-05-27 05:28:37
Программа кодирования : mkvmerge v7.9.0 ('Birds') 64bit
Библиотека кодирования : libebml v1.3.1 + libmatroska v1.4.2
_STATISTICS_WRITING_APP : mkvmerge v7.9.0 ('Birds') 64bit
_STATISTICS_WRITING_DATE_UTC : 2015-05-27 05:28:37
_STATISTICS_TAGS : BPS DURATION NUMBER_OF_FRAMES NUMBER_OF_BYTES
DURATION : 00:44:13.952000000
NUMBER_OF_FRAMES : 82936
NUMBER_OF_BYTES : 63694848
Видео
Идентификатор : 1
Формат : AVC
Формат/Информация : Advanced Video Codec
Профиль формата : [email protected]
Параметр CABAC формата : Да
Параметр ReFrames формата : 4 кадра
Идентификатор кодека : V_MPEG4/ISO/AVC
Продолжительность : 45 м.
Битрейт : 5032 Кбит/сек
Ширина : 1920 пикселей
Высота : 1080 пикселей
Соотношение сторон : 16:9
Режим частоты кадров : Постоянный
Частота кадров : 23,976 кадра/сек
Цветовое пространство : YUV
Субдискретизация насыщенности : 4:2:0
Битовая глубина : 8 бит
Тип развёртки : Прогрессивная
Бит/(Пиксели*Кадры) : 0.101
Размер потока : 1,59 Гбайт (69%)
Язык : English
Default : Да
Forced : Нет
Основные цвета : BT.709
Характеристики трансфера : BT.709
Коэффициенты матрицы : BT.709
colour_range : Limited
Аудио #1
Идентификатор : 2
Формат : AC-3
Формат/Информация : Audio Coding 3
Расширение режима : CM (complete main)
Параметр Endianness формата : Big
Идентификатор кодека : A_AC3
Продолжительность : 45 м.
Вид битрейта : Постоянный
Битрейт : 384 Кбит/сек
Каналы : 6 каналов
Расположение каналов : Front: L C R, Side: L R, LFE
Частота : 48,0 КГц
Битовая глубина : 16 бит
Метод сжатия : С потерями
Размер потока : 124 Мбайт (5%)
Заголовок : AlexFilm 5.1
Язык : Russian
Default : Да
Forced : Нет
Аудио #2
Идентификатор : 3
Формат : AC-3
Формат/Информация : Audio Coding 3
Расширение режима : CM (complete main)
Параметр Endianness формата : Big
Идентификатор кодека : A_AC3
Продолжительность : 45 м.
Вид битрейта : Постоянный
Битрейт : 384 Кбит/сек
Каналы : 6 каналов
Расположение каналов : Front: L C R, Side: L R, LFE
Частота : 48,0 КГц
Битовая глубина : 16 бит
Метод сжатия : С потерями
Размер потока : 124 Мбайт (5%)
Заголовок : LostFilm 5.1
Язык : Russian
Default : Нет
Forced : Да
Аудио #3
Идентификатор : 4
Формат : AC-3
Формат/Информация : Audio Coding 3
Расширение режима : CM (complete main)
Параметр Endianness формата : Big
Идентификатор кодека : A_AC3
Продолжительность : 45 м.
Вид битрейта : Постоянный
Битрейт : 384 Кбит/сек
Каналы : 6 каналов
Расположение каналов : Front: L C R, Side: L R, LFE
Частота : 48,0 КГц
Битовая глубина : 16 бит
Метод сжатия : С потерями
Размер потока : 124 Мбайт (5%)
Заголовок : NewStudio 5.1
Язык : Russian
Default : Нет
Forced : Нет
Аудио #4
Идентификатор : 5
Формат : AC-3
Формат/Информация : Audio Coding 3
Расширение режима : CM (complete main)
Параметр Endianness формата : Big
Идентификатор кодека : A_AC3
Продолжительность : 45 м.
Вид битрейта : Постоянный
Битрейт : 384 Кбит/сек
Каналы : 6 каналов
Расположение каналов : Front: L C R, Side: L R, LFE
Частота : 48,0 КГц
Битовая глубина : 16 бит
Метод сжатия : С потерями
Размер потока : 124 Мбайт (5%)
Заголовок : BaibaKo 5.1
Язык : Russian
Default : Нет
Forced : Нет
Аудио #5
Идентификатор : 6
Формат : AC-3
Формат/Информация : Audio Coding 3
Расширение режима : CM (complete main)
Параметр Endianness формата : Big
Идентификатор кодека : A_AC3
Продолжительность : 45 м.
Вид битрейта : Постоянный
Битрейт : 192 Кбит/сек
Каналы : 2 канала
Расположение каналов : Front: L R
Частота : 48,0 КГц
Битовая глубина : 16 бит
Метод сжатия : С потерями
Размер потока : 62,1 Мбайт (3%)
Заголовок : FOX 2.0
Язык : Russian
Default : Нет
Forced : Нет
Аудио #6
Идентификатор : 7
Формат : AC-3
Формат/Информация : Audio Coding 3
Расширение режима : CM (complete main)
Параметр Endianness формата : Big
Идентификатор кодека : A_AC3
Продолжительность : 45 м.
Вид битрейта : Постоянный
Битрейт : 384 Кбит/сек
Каналы : 6 каналов
Расположение каналов : Front: L C R, Side: L R, LFE
Частота : 48,0 КГц
Битовая глубина : 16 бит
Метод сжатия : С потерями
Размер потока : 124 Мбайт (5%)
Заголовок : original 5.1
Язык : English
Default : Нет
Forced : Нет
Текст #1
Идентификатор : 8
Формат : UTF-8
Идентификатор кодека : S_TEXT/UTF8
Идентификатор кодека/Информация : UTF-8 Plain Text
Заголовок : rus
Язык : Russian
Default : Нет
Forced : Нет
Текст #2
Идентификатор : 9
Формат : UTF-8
Идентификатор кодека : S_TEXT/UTF8
Идентификатор кодека/Информация : UTF-8 Plain Text
Заголовок : CC
Язык : English
Default : Нет
Forced : Нет

Скриншоты

Обновил раздачу. Замена дорожки LostFilm PROPER 10 серии. Приятного просмотра!
Яндекс.Метрика
Рейтинг@Mail.ru