U.D.O. (UDO) - Navy Metal Night [2015 г., Heavy Metal, DVD9]

 

Создавать темы 07-Авг-2015 21:48

U.D.O. (UDO) - Navy Metal Night [2015 г., Heavy Metal, DVD9]- Год выпуска: 2015
Страна: Germany
Лейбл: AFM Records
Жанр: Heavy Metal
Продолжительность: 01:40:28-Описание:
В феврале 2014 года, было нечто особенное !!! U.D.O. - в сопровождении Оркестра Немецкого Военно Морского Флота (Marinemusikkorps Nordsee). Симфонический звук оркестра и хора слились в единное целое с песнями - UDO и сделал этот вечер уникальный и незабываемый для всех!!! Вашему вниманию предоставляется запись этого концерта !!! 31 июля состоялся выход - Navy Metal Night, на Blu-Ray + 2CD, DVD + 2CD и на красном виниле !!!.-Качество: DVD9
Формат: DVD Video
Видео кодек: MPEG2
Аудио кодек: DTS
Видео: MPEG2 VIDEO / 720*480 (16:9) / NTSC / 29.970 fps / 6 900 Kbps
Аудио1: AC-3 / 448 Kbps / 48.0 KHz / 6 channels
Аудио2: DTS (Digital Theater Systems) / 755 Kbps / 48.0 KHz / 6 channels
Аудио3: PCM / 1 536 Kbps / 48.0 KHz / 2 channels-

Трэклист

01. Das Boot
02. Future Land
03. Independence Day
04. Animal Instinct
05. The Hall of the Mountain King
06. Heart of Gold
07. Man and Machine
08. Dancing with an Angel
09. Faceless World
10. Ride
11. Days of Hope and Glory
12. Cut Me Out
13. Trainride in Russia (Poezd Po Rossii)
14. Stillness of Time
15. King of Mean
16. Book of Faith
17. Animal House

DVDInfo

General
Complete name : C:\Users\Администратор\Desktop\U.D.O. - Navy Metal Night 2015 DVD9\VIDEO_TS\VIDEO_TS.BUP
Format : DVD Video
Format profile : Menu
File size : 12.0 KiB
Overall bit rate mode : Variable
Video
ID : 224 (0xE0)
Format : MPEG Video
Format version : Version 2
Bit rate mode : Variable
Width : 720 pixels
Height : 480 pixels
Display aspect ratio : 16:9
Frame rate : 29.970 fps
Standard : NTSC
Compression mode : Lossy
Audio
Format : PCM
Channel(s) : 2 channels
Sampling rate : 48.0 KHz
Text
Format : RLE
Format/Info : Run-length encoding
Bit depth : 2 bits
General
Complete name : C:\Users\Администратор\Desktop\U.D.O. - Navy Metal Night 2015 DVD9\VIDEO_TS\VIDEO_TS.IFO
Format : DVD Video
Format profile : Menu
File size : 12.0 KiB
Overall bit rate mode : Variable
Video
ID : 224 (0xE0)
Format : MPEG Video
Format version : Version 2
Bit rate mode : Variable
Width : 720 pixels
Height : 480 pixels
Display aspect ratio : 16:9
Frame rate : 29.970 fps
Standard : NTSC
Compression mode : Lossy
Audio
Format : PCM
Channel(s) : 2 channels
Sampling rate : 48.0 KHz
Text
Format : RLE
Format/Info : Run-length encoding
Bit depth : 2 bits
General
Complete name : C:\Users\Администратор\Desktop\U.D.O. - Navy Metal Night 2015 DVD9\VIDEO_TS\VIDEO_TS.VOB
Format : MPEG-PS
File size : 55.3 MiB
Duration : 1mn 0s
Overall bit rate mode : Variable
Overall bit rate : 7 692 Kbps
Video
ID : 224 (0xE0)
Format : MPEG Video
Format version : Version 2
Format profile : [email protected]
Format settings, BVOP : Yes
Format settings, Matrix : Custom
Format settings, GOP : M=3, N=15
Duration : 1mn 0s
Bit rate mode : Variable
Bit rate : 6 003 Kbps
Maximum bit rate : 8 000 Kbps
Width : 720 pixels
Height : 480 pixels
Display aspect ratio : 16:9
Frame rate : 29.970 fps
Standard : NTSC
Color space : YUV
Chroma subsampling : 4:2:0
Bit depth : 8 bits
Scan type : Progressive
Compression mode : Lossy
Bits/(Pixel*Frame) : 0.580
Time code of first frame : 00:50:00:00
Time code source : Group of pictures header
GOP, Open/Closed : Closed
Stream size : 43.2 MiB (78%)
Color primaries : BT.601 NTSC
Transfer characteristics : BT.601
Matrix coefficients : BT.601
Audio
ID : 189 (0xBD)-160 (0xA0)
Format : PCM
Format settings, Endianness : Big
Format settings, Sign : Signed
Muxing mode : DVD-Video
Duration : 1mn 0s
Bit rate mode : Constant
Bit rate : 1 536 Kbps
Channel(s) : 2 channels
Sampling rate : 48.0 KHz
Bit depth : 16 bits
Stream size : 11.0 MiB (20%)
Text #1
ID : 189 (0xBD)-32 (0x20)
Format : RLE
Format/Info : Run-length encoding
Muxing mode : DVD-Video
Text #2
ID : 189 (0xBD)-33 (0x21)
Format : RLE
Format/Info : Run-length encoding
Muxing mode : DVD-Video
Menu
General
Complete name : C:\Users\Администратор\Desktop\U.D.O. - Navy Metal Night 2015 DVD9\VIDEO_TS\VTS_01_0.BUP
Format : DVD Video
Format profile : Program
File size : 18.0 KiB
Duration : 14s 200ms
Overall bit rate mode : Variable
Overall bit rate : 10.4 Kbps
Video
ID : 224 (0xE0)
Format : MPEG Video
Format version : Version 2
Duration : 14s 214ms
Bit rate mode : Variable
Width : 720 pixels
Height : 480 pixels
Display aspect ratio : 16:9
Frame rate : 29.970 fps
Standard : NTSC
Compression mode : Lossy
Audio
ID : 0 (0x0)
Format : PCM
Duration : 14s 200ms
Channel(s) : 2 channels
Sampling rate : 48.0 KHz
Menu
Duration : 14s 200ms
00:00:00.000 : Chapter 1
00:00:13.800 : Chapter 2
List (Audio) : 0
General
Complete name : C:\Users\Администратор\Desktop\U.D.O. - Navy Metal Night 2015 DVD9\VIDEO_TS\VTS_01_0.IFO
Format : DVD Video
Format profile : Program
File size : 18.0 KiB
Duration : 14s 200ms
Overall bit rate mode : Variable
Overall bit rate : 10.4 Kbps
Video
ID : 224 (0xE0)
Format : MPEG Video
Format version : Version 2
Duration : 14s 214ms
Bit rate mode : Variable
Width : 720 pixels
Height : 480 pixels
Display aspect ratio : 16:9
Frame rate : 29.970 fps
Standard : NTSC
Compression mode : Lossy
Audio
ID : 0 (0x0)
Format : PCM
Duration : 14s 200ms
Channel(s) : 2 channels
Sampling rate : 48.0 KHz
Menu
Duration : 14s 200ms
00:00:00.000 : Chapter 1
00:00:13.800 : Chapter 2
List (Audio) : 0
General
Complete name : C:\Users\Администратор\Desktop\U.D.O. - Navy Metal Night 2015 DVD9\VIDEO_TS\VTS_01_0.VOB
Format : MPEG-PS
File size : 8.00 KiB
Duration : 33ms
Overall bit rate : 1 986 Kbps
Video
ID : 224 (0xE0)
Format : MPEG Video
Format version : Version 2
Format profile : [email protected]
Format settings, BVOP : No
Format settings, Matrix : Custom
Duration : 33ms
Maximum bit rate : 9 000 Kbps
Width : 720 pixels
Height : 480 pixels
Display aspect ratio : 2.40:1
Frame rate : 29.970 fps
Standard : NTSC
Color space : YUV
Chroma subsampling : 4:2:0
Bit depth : 8 bits
Scan type : Progressive
Scan order : Top Field First
Compression mode : Lossy
Time code of first frame : 00:00:00:00
Time code source : Group of pictures header
Color primaries : BT.601 NTSC
Transfer characteristics : BT.601
Matrix coefficients : BT.601
Menu
General
Complete name : C:\Users\Администратор\Desktop\U.D.O. - Navy Metal Night 2015 DVD9\VIDEO_TS\VTS_01_1.VOB
Format : MPEG-PS
File size : 12.6 MiB
Duration : 13s 795ms
Overall bit rate mode : Variable
Overall bit rate : 7 690 Kbps
Video
ID : 224 (0xE0)
Format : MPEG Video
Format version : Version 2
Format profile : [email protected]
Format settings, BVOP : Yes
Format settings, Matrix : Custom
Format settings, GOP : M=3, N=15
Format settings, picture structure : Frame
Duration : 33ms
Bit rate mode : Variable
Bit rate : 6 001 Kbps
Maximum bit rate : 8 000 Kbps
Width : 720 pixels
Height : 480 pixels
Display aspect ratio : 16:9
Frame rate : 29.970 fps
Standard : NTSC
Color space : YUV
Chroma subsampling : 4:2:0
Bit depth : 8 bits
Scan type : Interlaced
Scan order : Top Field First
Compression mode : Lossy
Bits/(Pixel*Frame) : 0.579
Time code of first frame : 00:50:00:00
Time code source : Group of pictures header
GOP, Open/Closed : Closed
Stream size : 24.4 KiB (0%)
Color primaries : BT.601 NTSC
Transfer characteristics : BT.601
Matrix coefficients : BT.601
Audio
ID : 189 (0xBD)-160 (0xA0)
Format : PCM
Format settings, Endianness : Big
Format settings, Sign : Signed
Muxing mode : DVD-Video
Duration : 13s 795ms
Bit rate mode : Constant
Bit rate : 1 536 Kbps
Channel(s) : 2 channels
Sampling rate : 48.0 KHz
Bit depth : 16 bits
Stream size : 2.53 MiB (20%)
Menu
General
Complete name : C:\Users\Администратор\Desktop\U.D.O. - Navy Metal Night 2015 DVD9\VIDEO_TS\VTS_02_0.BUP
Format : DVD Video
Format profile : Program
File size : 70.0 KiB
Duration : 1h 40mn
Overall bit rate mode : Variable
Overall bit rate : 95 bps
Video
ID : 224 (0xE0)
Format : MPEG Video
Format version : Version 2
Duration : 1h 40mn
Bit rate mode : Variable
Width : 720 pixels
Height : 480 pixels
Display aspect ratio : 16:9
Frame rate : 29.970 fps
Standard : NTSC
Compression mode : Lossy
Audio #1
ID : 0 (0x0)
Format : PCM
Duration : 1h 40mn
Channel(s) : 2 channels
Sampling rate : 48.0 KHz
Audio #2
ID : 137 (0x89)
Format : DTS
Format/Info : Digital Theater Systems
Duration : 1h 40mn
Channel(s) : 5 channels
Sampling rate : 48.0 KHz
Compression mode : Lossy
Audio #3
ID : 130 (0x82)
Format : AC-3
Format/Info : Audio Coding 3
Duration : 1h 40mn
Channel(s) : 6 channels
Sampling rate : 48.0 KHz
Compression mode : Lossy
Menu
Duration : 1h 40mn
00:00:00.000 : Chapter 1
00:05:43.500 : Chapter 2
00:12:54.000 : Chapter 3
00:18:40.500 : Chapter 4
00:23:16.000 : Chapter 5
00:26:53.500 : Chapter 6
00:32:22.500 : Chapter 7
00:38:56.000 : Chapter 8
00:44:06.000 : Chapter 9
00:51:00.000 : Chapter 10
00:55:09.500 : Chapter 11
01:00:30.000 : Chapter 12
01:05:50.000 : Chapter 13
01:13:37.500 : Chapter 14
01:20:13.500 : Chapter 15
01:27:20.000 : Chapter 16
01:33:47.000 : Chapter 17
01:40:28.800 : Chapter 18
List (Audio) : 0 / 1 / 2
General
Complete name : C:\Users\Администратор\Desktop\U.D.O. - Navy Metal Night 2015 DVD9\VIDEO_TS\VTS_02_0.IFO
Format : DVD Video
Format profile : Program
File size : 70.0 KiB
Duration : 1h 40mn
Overall bit rate mode : Variable
Overall bit rate : 95 bps
Video
ID : 224 (0xE0)
Format : MPEG Video
Format version : Version 2
Duration : 1h 40mn
Bit rate mode : Variable
Width : 720 pixels
Height : 480 pixels
Display aspect ratio : 16:9
Frame rate : 29.970 fps
Standard : NTSC
Compression mode : Lossy
Audio #1
ID : 0 (0x0)
Format : PCM
Duration : 1h 40mn
Channel(s) : 2 channels
Sampling rate : 48.0 KHz
Audio #2
ID : 137 (0x89)
Format : DTS
Format/Info : Digital Theater Systems
Duration : 1h 40mn
Channel(s) : 5 channels
Sampling rate : 48.0 KHz
Compression mode : Lossy
Audio #3
ID : 130 (0x82)
Format : AC-3
Format/Info : Audio Coding 3
Duration : 1h 40mn
Channel(s) : 6 channels
Sampling rate : 48.0 KHz
Compression mode : Lossy
Menu
Duration : 1h 40mn
00:00:00.000 : Chapter 1
00:05:43.500 : Chapter 2
00:12:54.000 : Chapter 3
00:18:40.500 : Chapter 4
00:23:16.000 : Chapter 5
00:26:53.500 : Chapter 6
00:32:22.500 : Chapter 7
00:38:56.000 : Chapter 8
00:44:06.000 : Chapter 9
00:51:00.000 : Chapter 10
00:55:09.500 : Chapter 11
01:00:30.000 : Chapter 12
01:05:50.000 : Chapter 13
01:13:37.500 : Chapter 14
01:20:13.500 : Chapter 15
01:27:20.000 : Chapter 16
01:33:47.000 : Chapter 17
01:40:28.800 : Chapter 18
List (Audio) : 0 / 1 / 2
General
Complete name : C:\Users\Администратор\Desktop\U.D.O. - Navy Metal Night 2015 DVD9\VIDEO_TS\VTS_02_0.VOB
Format : MPEG-PS
File size : 166 MiB
Duration : 1mn 0s
Overall bit rate mode : Variable
Overall bit rate : 23.0 Mbps
Video
ID : 224 (0xE0)
Format : MPEG Video
Format version : Version 2
Format profile : [email protected]
Format settings, BVOP : Yes
Format settings, Matrix : Custom
Format settings, GOP : M=3, N=15
Duration : 1mn 0s
Bit rate mode : Variable
Bit rate : 21.0 Mbps
Width : 720 pixels
Height : 480 pixels
Display aspect ratio : 16:9
Frame rate : 29.970 fps
Standard : NTSC
Color space : YUV
Chroma subsampling : 4:2:0
Bit depth : 8 bits
Scan type : Progressive
Compression mode : Lossy
Bits/(Pixel*Frame) : 2.029
Time code of first frame : 00:00:00:00
Time code source : Group of pictures header
GOP, Open/Closed : Closed
Stream size : 151 MiB (91%)
Color primaries : BT.601 NTSC
Transfer characteristics : BT.601
Matrix coefficients : BT.601
Audio
ID : 189 (0xBD)-160 (0xA0)
Format : PCM
Format settings, Endianness : Big
Format settings, Sign : Signed
Muxing mode : DVD-Video
Duration : 1mn 0s
Bit rate mode : Constant
Bit rate : 1 536 Kbps
Channel(s) : 2 channels
Sampling rate : 48.0 KHz
Bit depth : 16 bits
Delay relative to video : 90ms
Stream size : 11.0 MiB (7%)
Text #1
ID : 189 (0xBD)-32 (0x20)
Format : RLE
Format/Info : Run-length encoding
Muxing mode : DVD-Video
Delay relative to video : 90ms
Text #2
ID : 189 (0xBD)-33 (0x21)
Format : RLE
Format/Info : Run-length encoding
Muxing mode : DVD-Video
Delay relative to video : 90ms
Menu
General
Complete name : C:\Users\Администратор\Desktop\U.D.O. - Navy Metal Night 2015 DVD9\VIDEO_TS\VTS_02_1.VOB
Format : MPEG-PS
File size : 1 024 MiB
Duration : 14mn 34s
Overall bit rate : 9 818 Kbps
Video
ID : 224 (0xE0)
Format : MPEG Video
Format version : Version 2
Format profile : [email protected]
Format settings, BVOP : Yes
Format settings, Matrix : Custom
Format settings, GOP : M=3, N=15
Duration : 14mn 34s
Bit rate : 6 900 Kbps
Width : 720 pixels
Height : 480 pixels
Display aspect ratio : 16:9
Frame rate : 29.970 fps
Standard : NTSC
Color space : YUV
Chroma subsampling : 4:2:0
Bit depth : 8 bits
Scan type : Progressive
Compression mode : Lossy
Bits/(Pixel*Frame) : 0.666
Time code of first frame : 01:00:00;00
Time code source : Group of pictures header
GOP, Open/Closed : Closed
Stream size : 718 MiB (70%)
Color primaries : BT.601 NTSC
Transfer characteristics : BT.601
Matrix coefficients : BT.601
Audio #1
ID : 189 (0xBD)-130 (0x82)
Format : AC-3
Format/Info : Audio Coding 3
Mode extension : CM (complete main)
Format settings, Endianness : Big
Muxing mode : DVD-Video
Duration : 14mn 34s
Bit rate mode : Constant
Bit rate : 448 Kbps
Channel(s) : 6 channels
Channel positions : Front: L C R, Side: L R, LFE
Sampling rate : 48.0 KHz
Compression mode : Lossy
Stream size : 46.7 MiB (5%)
Audio #2
ID : 189 (0xBD)-137 (0x89)
Format : DTS
Format/Info : Digital Theater Systems
Mode : 16
Format settings, Endianness : Big
Muxing mode : DVD-Video
Duration : 14mn 34s
Bit rate mode : Constant
Bit rate : 755 Kbps
Channel(s) : 6 channels
Channel positions : Front: L C R, Side: L R, LFE
Sampling rate : 48.0 KHz
Bit depth : 16 bits
Compression mode : Lossy
Stream size : 78.7 MiB (8%)
Audio #3
ID : 189 (0xBD)-160 (0xA0)
Format : PCM
Format settings, Endianness : Big
Format settings, Sign : Signed
Muxing mode : DVD-Video
Duration : 14mn 34s
Bit rate mode : Constant
Bit rate : 1 536 Kbps
Channel(s) : 2 channels
Sampling rate : 48.0 KHz
Bit depth : 16 bits
Stream size : 160 MiB (16%)
Menu
General
Complete name : C:\Users\Администратор\Desktop\U.D.O. - Navy Metal Night 2015 DVD9\VIDEO_TS\VTS_02_2.VOB
Format : MPEG-PS
File size : 1 024 MiB
Duration : 14mn 35s
Overall bit rate : 9 817 Kbps
Video
ID : 224 (0xE0)
Format : MPEG Video
Format version : Version 2
Format profile : [email protected]
Format settings, BVOP : Yes
Format settings, Matrix : Custom
Format settings, GOP : M=3, N=15
Duration : 14mn 34s
Bit rate : 6 900 Kbps
Width : 720 pixels
Height : 480 pixels
Display aspect ratio : 16:9
Frame rate : 29.970 fps
Standard : NTSC
Color space : YUV
Chroma subsampling : 4:2:0
Bit depth : 8 bits
Scan type : Progressive
Compression mode : Lossy
Bits/(Pixel*Frame) : 0.666
Time code of first frame : 01:14:35;11
Time code source : Group of pictures header
GOP, Open/Closed : Closed
Stream size : 718 MiB (70%)
Color primaries : BT.601 NTSC
Transfer characteristics : BT.601
Matrix coefficients : BT.601
Audio #1
ID : 189 (0xBD)-130 (0x82)
Format : AC-3
Format/Info : Audio Coding 3
Mode extension : CM (complete main)
Format settings, Endianness : Big
Muxing mode : DVD-Video
Duration : 14mn 34s
Bit rate mode : Constant
Bit rate : 448 Kbps
Channel(s) : 6 channels
Channel positions : Front: L C R, Side: L R, LFE
Sampling rate : 48.0 KHz
Compression mode : Lossy
Delay relative to video : -494ms
Stream size : 46.7 MiB (5%)
Audio #2
ID : 189 (0xBD)-137 (0x89)
Format : DTS
Format/Info : Digital Theater Systems
Mode : 16
Format settings, Endianness : Big
Muxing mode : DVD-Video
Duration : 14mn 35s
Bit rate mode : Constant
Bit rate : 755 Kbps
Channel(s) : 6 channels
Channel positions : Front: L C R, Side: L R, LFE
Sampling rate : 48.0 KHz
Bit depth : 16 bits
Compression mode : Lossy
Delay relative to video : -537ms
Stream size : 78.7 MiB (8%)
Audio #3
ID : 189 (0xBD)-160 (0xA0)
Format : PCM
Format settings, Endianness : Big
Format settings, Sign : Signed
Muxing mode : DVD-Video
Duration : 14mn 35s
Bit rate mode : Constant
Bit rate : 1 536 Kbps
Channel(s) : 2 channels
Sampling rate : 48.0 KHz
Bit depth : 16 bits
Delay relative to video : -544ms
Stream size : 160 MiB (16%)
Menu
General
Complete name : C:\Users\Администратор\Desktop\U.D.O. - Navy Metal Night 2015 DVD9\VIDEO_TS\VTS_02_3.VOB
Format : MPEG-PS
File size : 1 024 MiB
Duration : 14mn 34s
Overall bit rate : 9 817 Kbps
Video
ID : 224 (0xE0)
Format : MPEG Video
Format version : Version 2
Format profile : [email protected]
Format settings, BVOP : Yes
Format settings, Matrix : Custom
Format settings, GOP : M=3, N=15
Duration : 14mn 34s
Bit rate : 6 900 Kbps
Width : 720 pixels
Height : 480 pixels
Display aspect ratio : 16:9
Frame rate : 29.970 fps
Standard : NTSC
Color space : YUV
Chroma subsampling : 4:2:0
Bit depth : 8 bits
Scan type : Progressive
Compression mode : Lossy
Bits/(Pixel*Frame) : 0.666
Time code of first frame : 01:29:10;09
Time code source : Group of pictures header
GOP, Open/Closed : Closed
Stream size : 718 MiB (70%)
Color primaries : BT.601 NTSC
Transfer characteristics : BT.601
Matrix coefficients : BT.601
Audio #1
ID : 189 (0xBD)-130 (0x82)
Format : AC-3
Format/Info : Audio Coding 3
Mode extension : CM (complete main)
Format settings, Endianness : Big
Muxing mode : DVD-Video
Duration : 14mn 34s
Bit rate mode : Constant
Bit rate : 448 Kbps
Channel(s) : 6 channels
Channel positions : Front: L C R, Side: L R, LFE
Sampling rate : 48.0 KHz
Compression mode : Lossy
Delay relative to video : -360ms
Stream size : 46.7 MiB (5%)
Audio #2
ID : 189 (0xBD)-137 (0x89)
Format : DTS
Format/Info : Digital Theater Systems
Mode : 16
Format settings, Endianness : Big
Muxing mode : DVD-Video
Duration : 14mn 34s
Bit rate mode : Constant
Bit rate : 755 Kbps
Channel(s) : 6 channels
Channel positions : Front: L C R, Side: L R, LFE
Sampling rate : 48.0 KHz
Bit depth : 16 bits
Compression mode : Lossy
Delay relative to video : -403ms
Stream size : 78.7 MiB (8%)
Audio #3
ID : 189 (0xBD)-160 (0xA0)
Format : PCM
Format settings, Endianness : Big
Format settings, Sign : Signed
Muxing mode : DVD-Video
Duration : 14mn 34s
Bit rate mode : Constant
Bit rate : 1 536 Kbps
Channel(s) : 2 channels
Sampling rate : 48.0 KHz
Bit depth : 16 bits
Delay relative to video : -401ms
Stream size : 160 MiB (16%)
Menu
General
Complete name : C:\Users\Администратор\Desktop\U.D.O. - Navy Metal Night 2015 DVD9\VIDEO_TS\VTS_02_4.VOB
Format : MPEG-PS
File size : 1 024 MiB
Duration : 14mn 34s
Overall bit rate : 9 819 Kbps
Video
ID : 224 (0xE0)
Format : MPEG Video
Format version : Version 2
Format profile : [email protected]
Format settings, BVOP : Yes
Format settings, Matrix : Custom
Format settings, GOP : M=3, N=15
Duration : 14mn 34s
Bit rate : 6 900 Kbps
Width : 720 pixels
Height : 480 pixels
Display aspect ratio : 16:9
Frame rate : 29.970 fps
Standard : NTSC
Color space : YUV
Chroma subsampling : 4:2:0
Bit depth : 8 bits
Scan type : Progressive
Compression mode : Lossy
Bits/(Pixel*Frame) : 0.666
Time code of first frame : 01:43:45;03
Time code source : Group of pictures header
GOP, Open/Closed : Closed
Stream size : 718 MiB (70%)
Color primaries : BT.601 NTSC
Transfer characteristics : BT.601
Matrix coefficients : BT.601
Audio #1
ID : 189 (0xBD)-130 (0x82)
Format : AC-3
Format/Info : Audio Coding 3
Mode extension : CM (complete main)
Format settings, Endianness : Big
Muxing mode : DVD-Video
Duration : 14mn 34s
Bit rate mode : Constant
Bit rate : 448 Kbps
Channel(s) : 6 channels
Channel positions : Front: L C R, Side: L R, LFE
Sampling rate : 48.0 KHz
Compression mode : Lossy
Delay relative to video : -290ms
Stream size : 46.7 MiB (5%)
Audio #2
ID : 189 (0xBD)-137 (0x89)
Format : DTS
Format/Info : Digital Theater Systems
Mode : 16
Format settings, Endianness : Big
Muxing mode : DVD-Video
Duration : 14mn 34s
Bit rate mode : Constant
Bit rate : 755 Kbps
Channel(s) : 6 channels
Channel positions : Front: L C R, Side: L R, LFE
Sampling rate : 48.0 KHz
Bit depth : 16 bits
Compression mode : Lossy
Delay relative to video : -333ms
Stream size : 78.7 MiB (8%)
Audio #3
ID : 189 (0xBD)-160 (0xA0)
Format : PCM
Format settings, Endianness : Big
Format settings, Sign : Signed
Muxing mode : DVD-Video
Duration : 14mn 34s
Bit rate mode : Constant
Bit rate : 1 536 Kbps
Channel(s) : 2 channels
Sampling rate : 48.0 KHz
Bit depth : 16 bits
Delay relative to video : -340ms
Stream size : 160 MiB (16%)
Menu
General
Complete name : C:\Users\Администратор\Desktop\U.D.O. - Navy Metal Night 2015 DVD9\VIDEO_TS\VTS_02_5.VOB
Format : MPEG-PS
File size : 1 024 MiB
Duration : 14mn 34s
Overall bit rate : 9 817 Kbps
Video
ID : 224 (0xE0)
Format : MPEG Video
Format version : Version 2
Format profile : [email protected]
Format settings, BVOP : Yes
Format settings, Matrix : Custom
Format settings, GOP : M=3, N=15
Duration : 14mn 34s
Bit rate : 6 900 Kbps
Width : 720 pixels
Height : 480 pixels
Display aspect ratio : 16:9
Frame rate : 29.970 fps
Standard : NTSC
Color space : YUV
Chroma subsampling : 4:2:0
Bit depth : 8 bits
Scan type : Progressive
Compression mode : Lossy
Bits/(Pixel*Frame) : 0.666
Time code of first frame : 01:58:20;01
Time code source : Group of pictures header
GOP, Open/Closed : Closed
Stream size : 718 MiB (70%)
Color primaries : BT.601 NTSC
Transfer characteristics : BT.601
Matrix coefficients : BT.601
Audio #1
ID : 189 (0xBD)-130 (0x82)
Format : AC-3
Format/Info : Audio Coding 3
Mode extension : CM (complete main)
Format settings, Endianness : Big
Muxing mode : DVD-Video
Duration : 14mn 34s
Bit rate mode : Constant
Bit rate : 448 Kbps
Channel(s) : 6 channels
Channel positions : Front: L C R, Side: L R, LFE
Sampling rate : 48.0 KHz
Compression mode : Lossy
Delay relative to video : -189ms
Stream size : 46.7 MiB (5%)
Audio #2
ID : 189 (0xBD)-137 (0x89)
Format : DTS
Format/Info : Digital Theater Systems
Mode : 16
Format settings, Endianness : Big
Muxing mode : DVD-Video
Duration : 14mn 34s
Bit rate mode : Constant
Bit rate : 755 Kbps
Channel(s) : 6 channels
Channel positions : Front: L C R, Side: L R, LFE
Sampling rate : 48.0 KHz
Bit depth : 16 bits
Compression mode : Lossy
Delay relative to video : -221ms
Stream size : 78.7 MiB (8%)
Audio #3
ID : 189 (0xBD)-160 (0xA0)
Format : PCM
Format settings, Endianness : Big
Format settings, Sign : Signed
Muxing mode : DVD-Video
Duration : 14mn 34s
Bit rate mode : Constant
Bit rate : 1 536 Kbps
Channel(s) : 2 channels
Sampling rate : 48.0 KHz
Bit depth : 16 bits
Delay relative to video : -227ms
Stream size : 160 MiB (16%)
Menu
General
Complete name : C:\Users\Администратор\Desktop\U.D.O. - Navy Metal Night 2015 DVD9\VIDEO_TS\VTS_02_6.VOB
Format : MPEG-PS
File size : 1 024 MiB
Duration : 14mn 35s
Overall bit rate : 9 816 Kbps
Video
ID : 224 (0xE0)
Format : MPEG Video
Format version : Version 2
Format profile : [email protected]
Format settings, BVOP : Yes
Format settings, Matrix : Custom
Format settings, GOP : M=3, N=15
Duration : 14mn 35s
Bit rate : 6 900 Kbps
Width : 720 pixels
Height : 480 pixels
Display aspect ratio : 16:9
Frame rate : 29.970 fps
Standard : NTSC
Color space : YUV
Chroma subsampling : 4:2:0
Bit depth : 8 bits
Scan type : Progressive
Compression mode : Lossy
Bits/(Pixel*Frame) : 0.666
Time code of first frame : 02:12:54;25
Time code source : Group of pictures header
GOP, Open/Closed : Closed
Stream size : 718 MiB (70%)
Color primaries : BT.601 NTSC
Transfer characteristics : BT.601
Matrix coefficients : BT.601
Audio #1
ID : 189 (0xBD)-130 (0x82)
Format : AC-3
Format/Info : Audio Coding 3
Mode extension : CM (complete main)
Format settings, Endianness : Big
Muxing mode : DVD-Video
Duration : 14mn 34s
Bit rate mode : Constant
Bit rate : 448 Kbps
Channel(s) : 6 channels
Channel positions : Front: L C R, Side: L R, LFE
Sampling rate : 48.0 KHz
Compression mode : Lossy
Delay relative to video : -86ms
Stream size : 46.7 MiB (5%)
Audio #2
ID : 189 (0xBD)-137 (0x89)
Format : DTS
Format/Info : Digital Theater Systems
Mode : 16
Format settings, Endianness : Big
Muxing mode : DVD-Video
Duration : 14mn 35s
Bit rate mode : Constant
Bit rate : 755 Kbps
Channel(s) : 6 channels
Channel positions : Front: L C R, Side: L R, LFE
Sampling rate : 48.0 KHz
Bit depth : 16 bits
Compression mode : Lossy
Delay relative to video : -129ms
Stream size : 78.7 MiB (8%)
Audio #3
ID : 189 (0xBD)-160 (0xA0)
Format : PCM
Format settings, Endianness : Big
Format settings, Sign : Signed
Muxing mode : DVD-Video
Duration : 14mn 35s
Bit rate mode : Constant
Bit rate : 1 536 Kbps
Channel(s) : 2 channels
Sampling rate : 48.0 KHz
Bit depth : 16 bits
Delay relative to video : -135ms
Stream size : 160 MiB (16%)
Menu
General
Complete name : C:\Users\Администратор\Desktop\U.D.O. - Navy Metal Night 2015 DVD9\VIDEO_TS\VTS_02_7.VOB
Format : MPEG-PS
File size : 917 MiB
Video
ID : 224 (0xE0)
Format : MPEG Video
Format version : Version 2
Format profile : [email protected]
Format settings, BVOP : Yes
Format settings, Matrix : Custom
Format settings, GOP : M=3, N=15
Maximum bit rate : 6 900 Kbps
Width : 720 pixels
Height : 480 pixels
Display aspect ratio : 16:9
Frame rate : 29.970 fps
Standard : NTSC
Color space : YUV
Chroma subsampling : 4:2:0
Bit depth : 8 bits
Scan type : Progressive
Compression mode : Lossy
Time code of first frame : 02:27:30;08
Time code source : Group of pictures header
GOP, Open/Closed : Closed
Color primaries : BT.601 NTSC
Transfer characteristics : BT.601
Matrix coefficients : BT.601
Audio #1
ID : 189 (0xBD)-130 (0x82)
Format : AC-3
Format/Info : Audio Coding 3
Mode extension : CM (complete main)
Format settings, Endianness : Big
Muxing mode : DVD-Video
Bit rate mode : Constant
Bit rate : 448 Kbps
Channel(s) : 6 channels
Channel positions : Front: L C R, Side: L R, LFE
Sampling rate : 48.0 KHz
Compression mode : Lossy
Delay relative to video : -453ms
Audio #2
ID : 189 (0xBD)-137 (0x89)
Format : DTS
Format/Info : Digital Theater Systems
Mode : 16
Format settings, Endianness : Big
Muxing mode : DVD-Video
Bit rate mode : Constant
Bit rate : 755 Kbps
Channel(s) : 6 channels
Channel positions : Front: L C R, Side: L R, LFE
Sampling rate : 48.0 KHz
Bit depth : 16 bits
Compression mode : Lossy
Delay relative to video : -474ms
Audio #3
ID : 189 (0xBD)-160 (0xA0)
Format : PCM
Format settings, Endianness : Big
Format settings, Sign : Signed
Muxing mode : DVD-Video
Bit rate mode : Constant
Bit rate : 1 536 Kbps
Channel(s) : 2 channels
Sampling rate : 48.0 KHz
Bit depth : 16 bits
Delay relative to video : -493ms
Menu

Скриншот меню

-Скриншоты--Время раздачи: 24/7 (круглосуточно)
Яндекс.Метрика
Рейтинг@Mail.ru