(Dance, Pop, Club) VA - Best of Dance Charts - 2012 [FLAC, tracks+.cue, lossless]

 

Создавать темы 06-Авг-2015 21:06

-Best of Dance Charts-- Год издания: 2012
Страна: UK
Жанр: Dance, Pop, Club
Продолжительность: 01:19:17-Лейбл издания: Gala Records
Тип альбома: Compilation
Страна-выпуска диска: Russia
Номер по каталогу: GL 10761
Формат: FLAC
Битрейт аудио: lossless
Тип рипа: image +.cue
Наличие сканов в содержимом раздачи: да-

Трэклист

01.Scooter - It's A Biz (Ain't Nobody) (The Big Mash Up Tour '2012 Edit) (03:23)
02.Mike Candys & Evelyn & Patrick Miller - 2012 (If The World Would End) (Club Mix) (04:04)
03.R.I.O. & U-Jean - Animal (PH Electro Radio Edit) (03:31)
04.Plumbers - I Don't Want You Back (03:39)
05. Martin Solveig - The Night Out (Single Version) (04:15)
06.Richard Grey - Lady (Radio Edit) (03:25)
07.Sol City & Massari - That Kinda Love (03:22)
08.Jasper Forks - This Club Is A Wonderland (Radio Mix) (03:42)
09.Bob Taylor - Shake It Up (03:10)
10.Micha Moor - Space '2011 (DBN Remix Edit) (03:26)
11.Andreas Lindstroem - Where Is The Love (Eric Chase & Marcel Jerome Edit) (03:23)
12.Jesus Luz - Dancefloor Is My Judge (Vocal Edit) (04:10)
13.Plastik Funk - Upside Down (Radio Edit) (03:07)
14.Micha Moor & Andrea Dub - Strobe (Radio Edit) (03:40)
15.Terri B. & D.O.N.S. & Shahin - Deeper Love (Pride) (Tito & DJ Slider Remix) (04:58)
16.Armand Pena & Plastik Funk - One Love (Boris Roodbwoy & Ezzy Safaris Remix Edit) (03:06)
17.Solo (UK) - Pumpernickel (Marco Lys RMX) (04:38)
18.Narany - You (Jerry Ropero & Ross Paterson Remix) (05:09)
19.Tomcraft - Zounds Of Africa (Original) (06:00)
20.Tom Novy - I Know U Want It (Original Mix) (05:19)

Лог создания рипа

Exact Audio Copy V0.99 prebeta 3 from 28. July 2007
Отчёт EAC об извлечении, выполненном 3. декабря 2012, 22:01
Various / Best of Dance Charts
Дисковод: Optiarc DVD RW AD-7203A   Adapter: 0  ID: 0
Режим чтения                 : Достоверность
Использование точного потока : Да
Отключение кэша аудио        : Да
Использование указателей C2  : Нет
Коррекция смещения при чтении                     : 48
Способность читать области Lead-in и Lead-out     : Нет
Заполнение пропущенных сэмплов тишиной            : Да
Удаление блоков с тишиной в начале и конце        : Нет
При вычислениях CRC использовались нулевые сэмплы : Да
Интерфейс                                         : Встроенный Win32-интерфейс для Win NT/2000
Выходной формат : Внутренние WAV-операции
Формат сэмплов  : 44.100 Гц; 16 бит; стерео
TOC извлечённого CD
Трек |   Старт  | Длительность | Начальный сектор | Конечный сектор
---------------------------------------------------------------------
1  |  0:00.00 |    3:22.32   |           0      |      15181
2  |  3:22.32 |    4:03.31   |       15182      |      33437
3  |  7:25.63 |    3:30.01   |       33438      |      49188
4  | 10:55.64 |    3:38.24   |       49189      |      65562
5  | 14:34.13 |    4:14.48   |       65563      |      84660
6  | 18:48.61 |    3:24.58   |       84661      |     100018
7  | 22:13.44 |    3:21.53   |      100019      |     115146
8  | 25:35.22 |    3:41.22   |      115147      |     131743
9  | 29:16.44 |    3:09.26   |      131744      |     145944
10  | 32:25.70 |    3:25.74   |      145945      |     161393
11  | 35:51.69 |    3:22.42   |      161394      |     176585
12  | 39:14.36 |    4:09.22   |      176586      |     195282
13  | 43:23.58 |    3:06.21   |      195283      |     209253
14  | 46:30.04 |    3:39.37   |      209254      |     225715
15  | 50:09.41 |    4:57.23   |      225716      |     248013
16  | 55:06.64 |    3:05.55   |      248014      |     261943
17  | 58:12.44 |    4:37.14   |      261944      |     282732
18  | 62:49.58 |    5:08.07   |      282733      |     305839
19  | 67:57.65 |    5:59.39   |      305840      |     332803
20  | 73:57.29 |    5:18.55   |      332804      |     356708
Характеристики диапазона извлечения и сообщения об ошибках
Выбранный диапазон
Имя файла D:\Rip-flacmusic.ru\VA - Best of Dance Charts (2012)\Various - Best of Dance Charts.wav
Пиковый уровень 99.6 %
Качество диапазона 100.0 %
CRC теста 00BE036B
CRC копии 00BE036B
Копирование... OK
Ошибок не произошло
AccurateRip: сводка
Трек  1  нет в базе данных
Трек  2  нет в базе данных
Трек  3  нет в базе данных
Трек  4  нет в базе данных
Трек  5  нет в базе данных
Трек  6  нет в базе данных
Трек  7  нет в базе данных
Трек  8  нет в базе данных
Трек  9  нет в базе данных
Трек 10  нет в базе данных
Трек 11  нет в базе данных
Трек 12  нет в базе данных
Трек 13  нет в базе данных
Трек 14  нет в базе данных
Трек 15  нет в базе данных
Трек 16  нет в базе данных
Трек 17  нет в базе данных
Трек 18  нет в базе данных
Трек 19  нет в базе данных
Трек 20  нет в базе данных
Ни одного трека нет в базе AccurateRip
Конец отчёта

Индексная карта (non-compilant .cue)

REM GENRE Dance
REM DATE 2012
REM DISCID 27129414
REM COMMENT "ExactAudioCopy v0.99pb3"
PERFORMER "Various"
TITLE "Best of Dance Charts"
FILE "Various - Best of Dance Charts.flac" WAVE
TRACK 01 AUDIO
TITLE "It's A Biz (Ain't Nobody) (The Big Mash Up Tour '2012 Edit)"
PERFORMER "Scooter"
FLAGS DCP
INDEX 01 00:00:00
TRACK 02 AUDIO
TITLE "2012 (If The World Would End) (Club Mix)"
PERFORMER "Mike Candys & Evelyn & Patrick Miller"
FLAGS DCP
INDEX 00 03:20:32
INDEX 01 03:22:32
TRACK 03 AUDIO
TITLE "Animal (PH Electro Radio Edit)"
PERFORMER "R.I.O. & U-Jean"
FLAGS DCP
INDEX 00 07:23:63
INDEX 01 07:25:63
TRACK 04 AUDIO
TITLE "I Don't Want You Back"
PERFORMER "Plumbers"
FLAGS DCP
INDEX 00 10:53:64
INDEX 01 10:55:64
TRACK 05 AUDIO
TITLE "The Night Out (Single Version)"
PERFORMER " Martin Solveig"
FLAGS DCP
INDEX 00 14:32:13
INDEX 01 14:34:13
TRACK 06 AUDIO
TITLE "Lady (Radio Edit)"
PERFORMER "Richard Grey"
FLAGS DCP
INDEX 00 18:46:61
INDEX 01 18:48:61
TRACK 07 AUDIO
TITLE "That Kinda Love"
PERFORMER "Sol City & Massari"
FLAGS DCP
INDEX 00 22:11:44
INDEX 01 22:13:44
TRACK 08 AUDIO
TITLE "This Club Is A Wonderland (Radio Mix)"
PERFORMER "Jasper Forks"
FLAGS DCP
INDEX 00 25:33:22
INDEX 01 25:35:22
TRACK 09 AUDIO
TITLE "Shake It Up"
PERFORMER "Bob Taylor"
FLAGS DCP
INDEX 00 29:14:44
INDEX 01 29:16:44
TRACK 10 AUDIO
TITLE "Space '2011 (DBN Remix Edit)"
PERFORMER "Micha Moor"
FLAGS DCP
INDEX 00 32:23:70
INDEX 01 32:25:70
TRACK 11 AUDIO
TITLE "Where Is The Love (Eric Chase & Marcel Jerome Edit)"
PERFORMER "Andreas Lindstroem"
FLAGS DCP
INDEX 00 35:49:69
INDEX 01 35:51:69
TRACK 12 AUDIO
TITLE "Dancefloor Is My Judge (Vocal Edit)"
PERFORMER "Jesus Luz"
FLAGS DCP
INDEX 00 39:12:36
INDEX 01 39:14:36
TRACK 13 AUDIO
TITLE "Upside Down (Radio Edit)"
PERFORMER "Plastik Funk"
FLAGS DCP
INDEX 00 43:21:58
INDEX 01 43:23:58
TRACK 14 AUDIO
TITLE "Strobe (Radio Edit)"
PERFORMER "Micha Moor & Andrea Dub"
FLAGS DCP
INDEX 00 46:28:04
INDEX 01 46:30:04
TRACK 15 AUDIO
TITLE "Deeper Love (Pride) (Tito & DJ Slider Remix)"
PERFORMER "Terri B. & D.O.N.S. & Shahin"
FLAGS DCP
INDEX 00 50:07:41
INDEX 01 50:09:41
TRACK 16 AUDIO
TITLE "One Love (Boris Roodbwoy & Ezzy Safaris Remix Edit)"
PERFORMER "Armand Pena & Plastik Funk"
FLAGS DCP
INDEX 00 55:04:64
INDEX 01 55:06:64
TRACK 17 AUDIO
TITLE "Pumpernickel (Marco Lys RMX)"
PERFORMER "Solo (UK)"
FLAGS DCP
INDEX 00 58:10:44
INDEX 01 58:12:44
TRACK 18 AUDIO
TITLE "You (Jerry Ropero & Ross Paterson Remix)"
PERFORMER "Narany"
FLAGS DCP
INDEX 00 62:47:58
INDEX 01 62:49:58
TRACK 19 AUDIO
TITLE "Zounds Of Africa (Original)"
PERFORMER "Tomcraft"
FLAGS DCP
INDEX 00 67:55:65
INDEX 01 67:57:65
TRACK 20 AUDIO
TITLE "I Know U Want It (Original Mix)"
PERFORMER "Tom Novy"
FLAGS DCP
INDEX 00 73:55:29
INDEX 01 73:57:29

auCDtect Task Manager Лог

-----------------------
DON'T MODIFY THIS FILE
-----------------------
PERFORMER: auCDtect Task Manager, ver. 1.5.1RC6 build 1.5.1.7
Copyright (c) 2008-2010 y-soft. All rights reserved
http://y-soft.org
ANALYZER: auCDtect: CD records authenticity detector, version 0.8.2
Copyright (c) 2004 Oleg Berngardt. All rights reserved.
Copyright (c) 2004 Alexander Djourik. All rights reserved.
FILE: Various - Best of Dance Charts.flac
Size: 621313708 Hash: B45417301176FFC60FD3D998BF60017C Accuracy: -m0
Conclusion: CDDA 100%
Signature: 26112DAF60CEB6C90680F71393721BC8CD229BDD
--Не забываем говорить
Яндекс.Метрика
Рейтинг@Mail.ru