Discovery: Секреты и Заговоры / Codes and Conspiracies [сезон 2 серии 1-6 из 6]

 

Создавать темы 06-Авг-2015 06:31

Discovery: Секреты и Заговоры / Codes and Conspiracies [сезон 2 серии 1-6 из 6]
Год выпуска: 2014
Страна: США, Discovery, Flight 33 Productions for American Heroes Channel (AHC)
Жанр: Документальный, исследование, история
Продолжительность: 6x~00:44:04
Перевод: Профессиональный (одноголосый), студия "Кирилица", текст читал Павел Кипнис
Режисер: Tim Evans
В ролях: Dan Nachtrab, Adolf Hitler, Dwight D. Eisenhower
Описание:
Сериал "Секреты и Заговоры" исследует неизвестные и скрытые истории самых знаковых мест и тайных организаций в мире. Раскройте скрытую сторону Америки, открыв потрясающие секреты подпольных заведений, сверхсекретных мест и таинственных символов.
-Качество: SATRip
Контейнер: AVI
Видео кодек: XviD
Аудио кодек: AC3
Видео: 720x400 25fps 1799kbps
Аудио: AC3, 2 ch, 192kbps
-
Discovery: Секреты и Заговоры / Codes and Conspiracies [сезон 1]
Discovery: Секреты и Заговоры / Codes and Conspiracies [сезон 2]

Список серий

01. Лас-Вегас / Las Vegas
Почему Лас-Вегас был одной из военных целей нацистов, полигоном для испытания атомных бомб и местом встречи террористов 11 сентября? Мы раскроем секреты этого города.
02. Нацисты в Америке / American Nazis
В 30-х годах XX века американские нацисты терроризировали США. На их совести многое, от стычек на Мэдисон-сквер-гарден до попыток выкрасть секретную информацию о военном оружии.
03. Древние астронавты / Did Aliens Visit the Ancients?
Действительно ли инопланетяне помогали строить пирамиды? Или тайна «древних астронавтов» — это лишь вымысел, навеянный книгами швейцарского автора Эриха фон Дэникена?
04. Отцы-основатели / Founding Fathers
В этой серии вы сможете узнать, кто из отцов — основателей Америки использовал секс как инструмент дипломатии, а кто тайком потешался над божественной природой Христа.
05. Опасные секты / Deadly Cults
Адские муки, Армагеддон, пришельцы из других миров. В США есть немало людей, готовых сломя голову броситься в смертельные объятия тоталитарных сект.
06. Экспериментальные солдаты / Experimental Soldiers
В разгар холодной войны США пытались разработать способ создания поколения "суперсолдат", выигрывающих сражения с помощью телепатии.

MediaInfo

Format : AVI
Format/Info : Audio Video Interleave
File size : 630 MiB
Duration : 44mn 3s
Overall bit rate : 1 999 Kbps
Writing application : TMPGEnc Video Mastering Works 5 Version. 5.0.6.38
Writing library : TMPGEnc Video Mastering Works 5 Version. 5.0.6.38
Video
ID : 0
Format : MPEG-4 Visual
Format profile : Advanced [email protected]
Format settings, BVOP : 2
Format settings, QPel : No
Format settings, GMC : No warppoints
Format settings, Matrix : Default (H.263)
Muxing mode : Packed bitstream
Codec ID : XVID
Codec ID/Hint : XviD
Duration : 44mn 3s
Bit rate : 1 800 Kbps
Width : 720 pixels
Height : 400 pixels
Display aspect ratio : 16:9
Frame rate : 25.000 fps
Color space : YUV
Chroma subsampling : 4:2:0
Bit depth : 8 bits
Scan type : Progressive
Compression mode : Lossy
Bits/(Pixel*Frame) : 0.250
Stream size : 567 MiB (90%)
Writing library : XviD 73
Audio
ID : 1
Format : AC-3
Format/Info : Audio Coding 3
Mode extension : CM (complete main)
Format settings, Endianness : Big
Codec ID : 2000
Duration : 44mn 3s
Bit rate mode : Constant
Bit rate : 192 Kbps
Channel(s) : 2 channels
Channel positions : Front: L R
Sampling rate : 48.0 KHz
Compression mode : Lossy
Stream size : 60.5 MiB (10%)
Alignment : Aligned on interleaves
Interleave, duration : 240 ms (6.00 video frames)
Interleave, preload duration : 224 ms
-Скриншоты-Благодарность за предоставленный рип: -Время раздачи: 24/7 (круглосуточно)
Яндекс.Метрика
Рейтинг@Mail.ru