Discovery: Секреты и Заговоры / Codes and Conspiracies [сезон 1 серии 1-6 из 6]

 

Создавать темы 05-Авг-2015 23:04

Discovery: Секреты и Заговоры / Codes and Conspiracies [сезон 1 серии 1-6 из 6]
Год выпуска: 2014
Страна: США, Discovery, Flight 33 Productions for American Heroes Channel (AHC)
Жанр: Документальный, исследование, история
Продолжительность: 6x~00:43:55
Перевод: Профессиональный (одноголосый), студия "Кирилица", текст читал Павел Кипнис
Режисер: Tim Evans
В ролях: Dan Nachtrab, Adolf Hitler, Dwight D. Eisenhower
Описание:
Сериал "Секреты и Заговоры" исследует неизвестные и скрытые истории самых знаковых мест и тайных организаций в мире. Раскройте скрытую сторону Америки, открыв потрясающие секреты подпольных заведений, сверхсекретных мест и таинственных символов.
-Качество: SATRip
Контейнер: AVI
Видео кодек: XviD
Аудио кодек: AC3
Видео: 720x400 25fps 1799kbps
Аудио: AC3, 2 ch, 192kbps
-
Discovery: Секреты и Заговоры / Codes and Conspiracies [сезон 1]
Discovery: Секреты и Заговоры / Codes and Conspiracies [сезон 2]

Список серий

01. Алькатрас / Alcatraz
Мы расскажем о том, как в результате заговора удалось бежать трём пленникам Алькатраса, и покажем остатки военного поста, историю которого связывают с Авраамом Линкольном.
02. Байкеры вне закона / Outlaw Bikers
Байкеры часто объединяются в организации. Что это на самом деле? Международные преступные синдикаты или просто клубы нонконформистов?
03. НЛО: совершенно секретно / The UFO Cover-Up
Говорят, что в Нью-Мехико упала нацистская тарелка, а в Зоне 51 живут инопланетяне. Давайте разбираться, где правда, а где вымысел.
04. Бункеры / Bunkers
У нас появилась возможность заглянуть в секретные бункеры США. Они бывают разные: от маленьких убежищ на заднем дворе до небольших городов, выстроенных для правительства Америки.
05. Бордели / Brothels
Мы приоткроем занавес, за которым кроются самые злачные места Америки. В стенах борделей порой раскрывались секреты высших лиц государства и церкви.
06. Франкмасоны (Вольные каменщики) / Freemasons
Большинство "отцов-основателей" и 14 президентов США были франкмасонами. Поговаривают даже, будто округ Вашингтон устроен в соответствии с кодексом масонского ордена

MediaInfo

Format : AVI
Format/Info : Audio Video Interleave
File size : 628 MiB
Duration : 43mn 55s
Overall bit rate : 2 000 Kbps
Writing application : TMPGEnc Video Mastering Works 5 Version. 5.0.6.38
Writing library : TMPGEnc Video Mastering Works 5 Version. 5.0.6.38
Video
ID : 0
Format : MPEG-4 Visual
Format profile : Advanced [email protected]
Format settings, BVOP : 2
Format settings, QPel : No
Format settings, GMC : No warppoints
Format settings, Matrix : Default (H.263)
Muxing mode : Packed bitstream
Codec ID : XVID
Codec ID/Hint : XviD
Duration : 43mn 55s
Bit rate : 1 800 Kbps
Width : 720 pixels
Height : 400 pixels
Display aspect ratio : 16:9
Frame rate : 25.000 fps
Color space : YUV
Chroma subsampling : 4:2:0
Bit depth : 8 bits
Scan type : Progressive
Compression mode : Lossy
Bits/(Pixel*Frame) : 0.250
Stream size : 565 MiB (90%)
Writing library : XviD 73
Audio
ID : 1
Format : AC-3
Format/Info : Audio Coding 3
Mode extension : CM (complete main)
Format settings, Endianness : Big
Codec ID : 2000
Duration : 43mn 55s
Bit rate mode : Constant
Bit rate : 192 Kbps
Channel(s) : 2 channels
Channel positions : Front: L R
Sampling rate : 48.0 KHz
Bit depth : 16 bits
Compression mode : Lossy
Stream size : 60.3 MiB (10%)
Alignment : Aligned on interleaves
Interleave, duration : 240 ms (6.00 video frames)
Interleave, preload duration : 224 ms
-Скриншоты-Благодарность за предоставленный рип: -Время раздачи: 24/7 (круглосуточно)
Яндекс.Метрика
Рейтинг@Mail.ru