(New Age, Ambient, Enigmatic) Guido Negraszus - Touch The Sky - 2010, FLAC (image+.cue), lossless

 

Создавать темы 14-Дек-2013 02:22

Guido Negraszus - Touch The Sky
Жанр: New Age, Ambient, Enigmatic
Страна-производитель диска: Германия
Год издания: 2010
Издатель (лейбл): Guido Negraszus Music
Аудиокодек: FLAC (*.flac)
Тип рипа: image+.cue
Битрейт аудио: 872 kbps
Продолжительность: 01:09:37
Источник (релизер): Интернет
Наличие сканов в содержимом раздачи: нет
Трек-лист:
01. Fernweh
02. Touch The Sky
03. Islands Getaway
04. Memories & Dreams
05. Aurora
06. Highway Flyer
07. Journey Of Dreams
08. To Be Free
09. Wunderbar
10. Flowing
11. Beautiful Mind
12. Ocean Fly
13. Going Home
14. Travelling Path
15. Seagulls

Лог создания рипа

Exact Audio Copy V0.99 prebeta 5 from 4. May 2009
Отчёт EAC об извлечении, выполненном 4. декабря 2013, 10:45
Guido Negraszus / Touch The Sky
Дисковод: PLEXTOR DVDR PX-L890SA Adapter: 3 ID: 0
Режим чтения : Достоверность
Использование точного потока : Да
Отключение кэша аудио : Да
Использование указателей C2 : Нет
Коррекция смещения при чтении : 6
Способность читать области Lead-in и Lead-out : Нет
Заполнение пропущенных сэмплов тишиной : Да
Удаление блоков с тишиной в начале и конце : Нет
При вычислениях CRC использовались нулевые сэмплы : Да
Интерфейс : Встроенный Win32-интерфейс для Win NT/2000
Выходной формат : Пользовательский кодировщик
Выбранный битрейт : 768 kBit/s
Качество : Высокий
Добавление ID3-тэга : Нет
Утилита сжатия : C:\Program Files\Exact Audio Copy\FLAC\FLAC.EXE
Дополнительные параметры : -6 -V -T "ARTIST=%a" -T "TITLE=%t" -T "ALBUM=%g" -T "DATE=%y" -T "TRACKNUMBER=%n" -T "GENRE=%m" -T "COMMENT=%e" %s -o %d
TOC извлечённого CD
Трек | Старт | Длительность | Начальный сектор | Конечный сектор
---------------------------------------------------------------------
1 | 0:00.00 | 4:22.57 | 0 | 19706
2 | 4:22.57 | 3:59.38 | 19707 | 37669
3 | 8:22.20 | 5:15.37 | 37670 | 61331
4 | 13:37.57 | 3:54.54 | 61332 | 78935
5 | 17:32.36 | 5:12.59 | 78936 | 102394
6 | 22:45.20 | 5:01.41 | 102395 | 125010
7 | 27:46.61 | 4:30.47 | 125011 | 145307
8 | 32:17.33 | 4:56.60 | 145308 | 167567
9 | 37:14.18 | 4:47.48 | 167568 | 189140
10 | 42:01.66 | 3:16.33 | 189141 | 203873
11 | 45:18.24 | 5:17.59 | 203874 | 227707
12 | 50:36.08 | 4:24.11 | 227708 | 247518
13 | 55:00.19 | 4:44.44 | 247519 | 268862
14 | 59:44.63 | 5:41.49 | 268863 | 294486
15 | 65:26.37 | 4:10.48 | 294487 | 313284
Характеристики диапазона извлечения и сообщения об ошибках
Выбранный диапазон
Имя файла C:\Guido Negraszus - Touch The Sky.wav
Пиковый уровень 100.0 %
Качество диапазона 100.0 %
CRC теста E40DADA5
CRC копии E40DADA5
Копирование... OK
Ошибок не произошло
Конец отчёта

Лог проверки качества

-----------------------
DON'T MODIFY THIS FILE
-----------------------
PERFORMER: auCDtect Task Manager, ver. 1.5.1RC4 build 1.5.1.5
Copyright (c) 2008-2010 y-soft. All rights reserved
http://y-soft.org
ANALYZER: auCDtect: CD records authenticity detector, version 0.8.2
Copyright (c) 2004 Oleg Berngardt. All rights reserved.
Copyright (c) 2004 Alexander Djourik. All rights reserved.
FILE: Guido Negraszus - Touch The Sky.flac
Size: 455811856 Hash: F97E2DB3CEBF8D53B8D1ED3B3802BAF6 Accuracy: -m0
Conclusion: CDDA 100%
Signature: 8097A07F1F3E02FB9D618C6E00A022F45C8188D1

Скриншот спектра частот

Яндекс.Метрика
Рейтинг@Mail.ru