Правда крупным планом

 

Создавать темы 04-Авг-2015 10:35

Правда крупным планом
Год выпуска: 1988
Страна: СССР
Жанр: мультфильм для взрослых
Продолжительность: 00:09:41
Производство: Киевнаучфильм
Русские субтитры: нет
Режиссёр: Владимир Гончаров
Описание: Ироничный мультфильм о политическом строе советского союза рассчитан на взрослую аудиторию. Акценты указывают на характерные моменты для периодов правления разных вождей, проводя параллели и с меняющимся обликом народа. Но изображенные обыватели больше всего хотели посмотреть на правду, что они в итоге и получили.
Качество: WEBRip
Контейнер: AVI
Видео: 720x544 (1.32:1), 25 fps, XviD MPEG-4 ~1994 kbps avg, 0.204 bit/pixel
Аудио: 44.1 kHz, MPEG Layer 3, 1 ch, ~128.00 kbps avg

MediaInfo

GeneralComplete name : E:\1\мультики\Правда крупным планом 1988.aviFormat : AVIFormat/Info : Audio Video InterleaveFile size : 148 MiBDuration : 9mn 41sOverall bit rate : 2 132 KbpsWriting application : VirtualDubMod 1.5.10.3 | www.virtualdub-fr.org || (build 2550/release)Writing library : VirtualDubMod build 2550/release
VideoID : 0Format : MPEG-4 VisualFormat profile : Advanced [email protected] settings, BVOP : 2Format settings, QPel : NoFormat settings, GMC : No warppointsFormat settings, Matrix : Default (H.263)Codec ID : XVIDCodec ID/Hint : XviDDuration : 9mn 41sBit rate : 1 994 KbpsWidth : 720 pixelsHeight : 544 pixelsDisplay aspect ratio : 4:3Frame rate : 25.000 fpsColor space : YUVChroma subsampling : 4:2:0Bit depth : 8 bitsScan type : ProgressiveCompression mode : LossyBits/(Pixel*Frame) : 0.204Stream size : 138 MiB (94%)Writing library : XviD 73
AudioID : 1Format : MPEG AudioFormat version : Version 1Format profile : Layer 3Codec ID : 55Codec ID/Hint : MP3Duration : 9mn 40sBit rate mode : ConstantBit rate : 128 KbpsChannel count : 1 channelSampling rate : 44.1 KHzCompression mode : LossyStream size : 8.87 MiB (6%)Alignment : Split accross interleavesInterleave, duration : 40 ms (1.00 video frame)Interleave, preload duration : 500 msWriting library : LAME3.99rEncoding settings : -m m -V 4 -q 2 -lowpass 20.5 -b 128
Скриншоты--Время раздачи: 24/7 (круглосуточно)
Яндекс.Метрика
Рейтинг@Mail.ru