Nat Geo Wild: Дикая Антарктика / Wild Antarctica

 

Создавать темы 03-Авг-2015 09:30

Nat Geo Wild: Дикая Антарктика / Wild Antarctica
Год выпуска: 2015
Страна: Новая Зеландия, Natural History New Zeland Ltd for NGC
Жанр: Документальный, научно-познавательный
Продолжительность: 00:43:59
Перевод: Профессиональный (одноголосый), озвучено на студии "Велес", текст читала Виктория Слуцкая
Режиссер: Jessica Connell
Описание:
Антарктида. Самый холодный, сухой, удалённый континент Земли. Изоляция и экстремальные температуры делают Антарктиду непохожей на другие места на нашей планете. Но даже в этом наиболее труднодоступном районе Земли, где еще сохранилась первозданная природа, жизнь процветает, несмотря на экстремальные условия и местные животные прекрасно приспособлены к этим суровым условиям. Но любое живое существо на этом замерзшем континенте всегда находится на краю гибели. Нигде больше с такой силой не проявляется воля к выживанию, как в Антарктиде. Обитание на этой промерзшей и жестокой земле - наивысшее достижение на планете, потому, что жизнь здесь существует на грани возможностей.
Качество: HDTVRip-AVC
Контейнер: MKV
Видео кодек: H.264
Аудио кодек: AC3
Видео: 1280x720 25fps 5000 Kbps
Аудио: AC3, 2ch, 192 kbps, 48 kHz

MediaInfo

Format : Matroska
Format version : Version 4 / Version 2
File size : 1.59 GiB
Duration : 43mn 58s
Overall bit rate mode : Variable
Overall bit rate : 5 186 Kbps
Encoded date : UTC 2015-08-02 20:47:15
Writing application : mkvmerge v8.2.0 ('World of Adventure') 64bit
Writing library : libebml v1.3.1 + libmatroska v1.4.2
DURATION : 00:43:58.760000000
NUMBER_OF_FRAMES : 65969
NUMBER_OF_BYTES : 1646499867
_STATISTICS_WRITING_APP : mkvmerge v8.2.0 ('World of Adventure') 64bit
_STATISTICS_WRITING_DATE_UTC : 2015-08-02 20:47:15
_STATISTICS_TAGS : BPS DURATION NUMBER_OF_FRAMES NUMBER_OF_BYTES
Video
ID : 1
Format : AVC
Format/Info : Advanced Video Codec
Format profile : [email protected]
Format settings, CABAC : Yes
Format settings, ReFrames : 3 frames
Codec ID : V_MPEG4/ISO/AVC
Duration : 43mn 58s
Bit rate mode : Variable
Bit rate : 5 000 Kbps
Maximum bit rate : 8 000 Kbps
Width : 1 280 pixels
Height : 720 pixels
Display aspect ratio : 16:9
Frame rate mode : Constant
Frame rate : 25.000 fps
Standard : NTSC
Color space : YUV
Chroma subsampling : 4:2:0
Bit depth : 8 bits
Scan type : Progressive
Bits/(Pixel*Frame) : 0.217
Stream size : 1.50 GiB (94%)
Writing library : x264 core 114
Encoding settings : cabac=1 / ref=3 / deblock=1:0:0 / analyse=0x3:0x113 / me=hex / subme=7 / psy=1 / psy_rd=1.00:0.00 / mixed_ref=1 / me_range=16 / chroma_me=1 / trellis=1 / 8x8dct=1 / cqm=2 / deadzone=21,11 / fast_pskip=1 / chroma_qp_offset=-4 / threads=6 / sliced_threads=0 / slices=1 / nr=0 / decimate=1 / interlaced=0 / constrained_intra=0 / bframes=3 / b_pyramid=0 / b_adapt=1 / b_bias=0 / direct=1 / weightb=1 / open_gop=0 / weightp=2 / keyint=250 / keyint_min=25 / scenecut=40 / intra_refresh=0 / rc_lookahead=40 / rc=2pass / mbtree=1 / bitrate=5000 / ratetol=1.0 / qcomp=0.60 / qpmin=5 / qpmax=69 / qpstep=4 / cplxblur=20.0 / qblur=0.5 / vbv_maxrate=8000 / vbv_bufsize=7995 / nal_hrd=vbr / ip_ratio=1.40 / aq=1:1.00
Default : Yes
Forced : No
Color range : Limited
Color primaries : BT.709
Transfer characteristics : BT.709
Matrix coefficients : BT.709
Audio
ID : 2
Format : AC-3
Format/Info : Audio Coding 3
Mode extension : CM (complete main)
Format settings, Endianness : Big
Codec ID : A_AC3
Duration : 43mn 58s
Bit rate mode : Constant
Bit rate : 192 Kbps
Channel(s) : 2 channels
Channel positions : Front: L R
Sampling rate : 48.0 KHz
Compression mode : Lossy
Stream size : 60.4 MiB (4%)
Default : Yes
Forced : No
Скриншоты--Благодарность за предоставленный рип:
Яндекс.Метрика
Рейтинг@Mail.ru