Первая мировая (10 серий из 10) (Олег Четвериков)

 

Создавать темы 03-Авг-2015 06:57

Первая мировая (10 серий из 10) (Олег Четвериков) Год выпуска: 2015
Страна: Беларусь
Жанр: Документальный, война, история
Продолжительность: 10 х ~ 00:38:14
Перевод: Не требуется
Режиссер: Олег Четвериков
Телеканал: ОНТ
Описание:
В 2014 году исполнилось 100 лет с начала Первой мировой войны. Войны, которую долгое время называли Великой, потому что по масштабам она не имела равных в истории.
Создатели фильма провели огромную исследовательскую работу в закрытых архивах и сделали уникальные открытия. Съёмки велись в сорока городах двенадцати стран мира. Всё для того, чтобы зрители ОНТ смогли оценить вклад своих земляков в ход мировой истории и узнать о научных и военных изобретениях тех лет. 10 фильмов, которые станут настоящей сенсацией.
Мы расскажем о боевых операциях Первой мировой через призму подвигов отдельных личностей (командующих армией, офицеров и простых солдат – летчиков, артиллеристов, кавалеристов; а также мирных граждан – православных священников, крестьян; женщин и даже детей).
В каждой серии мы вспомним об одном из изобретений, которое появилось в годы войны и повлияло на ход истории. Ведь неслучайно любую войну называют «двигателем прогресса и высоких технологий». За четыре года, пока шла Первая мировая, в мире было запатентовано более 200 изобретений. Причем, не только в сфере военной техники. Для статистики: в 1915 году появился первый в мире танк, первый в мире бомбардировщик, зенитная пушка, парашют, френч, аспирин в таблетках, блиндаж, снайперская винтовка, огнемёт, химическое оружие, противогаз, противостолбнячная сыворотка и другие. Всего 60 изобретений, 31 из которых имели непосредственное отношение к модернизации армии.
Качество: SATRip
Контейнер: AVI
Видео: 720x400 (1.80:1), 25 fps, DivX, ~1653 kbps avg, 0.23 bit/pixel
Аудио: 48 kHz, MPEG Layer 3, 2 ch, ~128.00 kbps avg

Список серий

1. Авиаторы
2. Военнопленные
3. Гибель «Лузитании»
4. Партизаны
5. Атака мертвецов
6. Врачи и медсестры
7. Легионеры
8. Разведчики и шпионы
9. Писатели и поэты
10. Неоконченная война

MediaInfo

Первая мировая\Pervaja.mirovaja.2015.DivX.SATRip.alf62\Pervaja.mirovaja.(02.serija.iz.10).Voennoplennye.2015.DivX.SATRip.alf62.aviФормат : AVIФормат/Информация : Audio Video InterleaveРазмер файла : 490 МбайтПродолжительность : 38 м.Общий поток : 1791 Кбит/секПрограмма кодирования : VirtualDubMod 1.5.10.3 | www.virtualdub-fr.org || (build 2550/release)Библиотека кодирования : VirtualDubMod build 2550/release
ВидеоИдентификатор : 0Формат : MPEG-4 VisualПрофиль формата : Advanced [email protected] BVOP формата : 2Параметр QPel формата : НетПараметр GMC формата : Без точки переходаПараметр матрицы формата : Default (H.263)Идентификатор кодека : DX50Идентификатор кодека/Подсказка : DivX 5Продолжительность : 38 м.Битрейт : 1653 Кбит/секШирина : 720 пикселейВысота : 400 пикселейСоотношение сторон : 16:9Частота кадров : 25,000 кадров/секЦветовое пространство : YUVСубдискретизация насыщенности : 4:2:0Битовая глубина : 8 битТип развёртки : ПрогрессивнаяМетод сжатия : С потерямиБит/(Пиксели*Кадры) : 0.230Размер потока : 452 Мбайт (92%)Библиотека кодирования : XviD 73
АудиоИдентификатор : 1Формат : MPEG AudioВерсия формата : Version 1Профиль формата : Layer 3Идентификатор кодека : 55Идентификатор кодека/Подсказка : MP3Продолжительность : 38 м.Вид битрейта : ПостоянныйБитрейт : 128 Кбит/секКаналы : 2 каналаЧастота : 48,0 КГцМетод сжатия : С потерямиРазмер потока : 35,0 Мбайт (7%)Выравнивание : Соединение по промежуткамПродолжительность промежутка : 40 мс. (1,00 видеокадр)Время предзагрузки промежутка : 504 мс.Библиотека кодирования : LAME3.99rНастройки программы : -m s -V 4 -q 2 -lowpass 17 -b 128
Скриншоты-
Яндекс.Метрика
Рейтинг@Mail.ru