[ Сегодня на трекере фрилич! Идет свободное скачивание без начисления Download ]

Сыны Анархии / Sons of Anarchy (Сезон 6, полный, 13 серий) (Гвинет Хордер-Пэйтон / Gwyneth Horder-Payton ...) [2013г., Триллер, Драма, Криминал, WEB-DLRip 720p] MVO (LostFilm)

 

Создавать темы 13-Дек-2013 17:47

Сыны Анархии
Sons of Anarchy

«Let freedom ride»
- Русское название: Сыны Анархии
Оригинальное название: Sons of Anarchy
Страна: США
Год выпуска: 2013
Жанр: Триллер, Драма, Криминал-Озвучка: Студия LostFilm
Перевод: Многоголосый закадровый, профессиональный-Режиссер: Гвинет Хордер-Пэйтон / Gwyneth Horder-Payton, Пэрис Барклай / Paris Barclay , Гай Ферленд / Guy Ferland
Актеры: Чарли Ханнэм, Кэти Сагал, Марк Бун Джуниор, Ким Коутс, Томми Флэнаган, Мэгги Сифф, Рон Перлман, Тео Росси, Уильям Лаккинг, Райан Херст и др.-Описание фильма:
Sons of Anarchy - клуб байкеров, который занимается продажей оружия. Но молодой лидер клуба не слишком уверен в том, что выбрал правильный путь, и пытается что-то изменить, к неудовольствию своих мамы и отчима.
Потрясающая драма о нелегкой жизни байкеров...-Сезон: 6
Серии: 13 из 13 серий
Продолжительность: ~ 01:06:00 мин серия-Качество видео: WEB-DLRip 720p
Контейнер: MKV
Видео кодек: H.264
Аудио кодек: AC3
Видео: AVC, 1280x720 (16:9), 23.976 fps, 4 041 Kbps (0.183 bit/pixel)
Аудио #1: Rus: AC-3, 48.0 KHz, 2 ch, 384 Kbps, CBR
Аудио #2: Eng: AC-3, 48.0 KHz, 2 ch, 384 Kbps, CBR--

Список серий:

  • Соломинка (Straw)
  • Сонет 116 (One One Six)
  • Покаяние (Poenitentia)
  • Вольфсангель (Wolfsangel)
  • Безумный король (The Mad King)
  • Обломки (Salvage)
  • Отлучить от ребёнка (Sweet and Vaded)
  • Призраки (Los Fantasmas)
  • Евангелие от Иоанна 8:32 (John 8:32)
  • Хуань Ву (Huang Wu)
  • Ничего личного (Aon Rud Persanta)
  • Ты мое солнышко (You Are My Sunshine)
  • Материнский долг (A Mother's Work)
-

MediaInfo:

Полное имя                       : F:\Сериал\раздача\Sons.of.Anarchy.S06\Sons.of.Anarchy.S06E01.720p.rus.LostFilm.mkv
Формат                           : Matroska
Версия формата                   : Version 2
Размер файла                     : 2,23 Гбайт
Продолжительность                : 1 ч. 6 м.
Общий поток                      : 4811 Кбит/сек
Дата кодирования                 : UTC 2013-09-12 14:49:16
Программа кодирования            : mkvmerge v4.2.0 ('No Talking') сборка от Jul 28 2010 18:38:23
Библиотека кодирования           : libebml v1.0.0 + libmatroska v1.0.0
Видео
Идентификатор                    : 1
Формат                           : AVC
Формат/Информация                : Advanced Video Codec
Профиль формата                  : [url=mailto:[email protected]][email protected][/url]
Параметр CABAC формата           : Да
Параметр ReFrames формата        : 4 кадра
Параметры GOP формата            : M=3, N=6
Идентификатор кодека             : V_MPEG4/ISO/AVC
Продолжительность                : 1 ч. 6 м.
Битрейт                          : 4041 Кбит/сек
Ширина                           : 1280 пикс.
Высота                           : 720 пикс.
Соотношение сторон               : 16:9
Частота кадров                   : 23,976 кадр/сек
Цветовое пространство            : YUV
Подвыборка цветности             : 4:2:0
Битовая глубина                  : 8 бит
Тип развёртки                    : Прогрессивная
Бит/(Пиксели*Кадры)              : 0.183
Размер потока                    : 1,83 Гбайт (82%)
Библиотека кодирования           : x264 core 112 r1834 a51816a
Настройки программы              : cabac=1 / ref=1 / deblock=1:0:0 / analyse=0x3:0x113 / me=hex / subme=7 / psy=1 / psy_rd=1.00:0.00 / mixed_ref=0 / me_range=16 / chroma_me=1 / trellis=1 / 8x8dct=1 / cqm=0 / deadzone=21,11 / fast_pskip=1 / chroma_qp_offset=-2 / threads=6 / sliced_threads=0 / nr=0 / decimate=1 / interlaced=0 / constrained_intra=0 / bframes=3 / b_pyramid=2 / b_adapt=1 / b_bias=0 / direct=1 / weightb=1 / open_gop=0 / weightp=2 / keyint=250 / keyint_min=25 / scenecut=40 / intra_refresh=0 / rc_lookahead=40 / rc=2pass / mbtree=1 / bitrate=4041 / ratetol=1.0 / qcomp=0.60 / qpmin=0 / qpmax=51 / qpstep=4 / cplxblur=20.0 / qblur=0.5 / ip_ratio=1.40 / aq=1:1.00
Аудио #1
Идентификатор                    : 2
Формат                           : AC-3
Формат/Информация                : Audio Coding 3
Расширение режима                : CM (complete main)
Идентификатор кодека             : A_AC3
Продолжительность                : 1 ч. 6 м.
Вид битрейта                     : Постоянный
Битрейт                          : 384 Кбит/сек
Каналы                           : 2 канала
Расположение каналов             : Front: L R
Частота                          : 48,0 КГц
Битовая глубина                  : 16 бит
Метод сжатия                     : С потерями
Размер потока                    : 182 Мбайт (8%)
Аудио #2
Идентификатор                    : 3
Формат                           : AC-3
Формат/Информация                : Audio Coding 3
Расширение режима                : CM (complete main)
Идентификатор кодека             : A_AC3
Продолжительность                : 1 ч. 6 м.
Вид битрейта                     : Постоянный
Битрейт                          : 384 Кбит/сек
Каналы                           : 2 канала
Расположение каналов             : Front: L R
Частота                          : 48,0 КГц
Битовая глубина                  : 16 бит
Метод сжатия                     : С потерями
Размер потока                    : 182 Мбайт (8%)
699624 & RT
-Скриншоты:
-

Еще

-

Внимание! Раздача ведётся путём добавления новых серий!

Внимание! Раздача ведётся путём добавления новых серий; при каждом добавлении создётся новый торрент. Чтобы начать докачку новой серии, пользователям необходимо сделать следующее:
(1) остановить скачивание,
(2) удалить старый торрент у себя из клиента (старые серии удалять не надо),
(3) скачать новый торрент и запустить его у себя в клиенте вместо старого, при этом указать клиенту путь в старую папку куда и должно происходить скачивание новых серий.
Ваш клиент при этом должен произвести хеширование (проверку) старой папки (если не производит сам - помогите ему сделать это), и будет докачивать только те серии которых у вас ещё нет. Старые серии при этом не удаляются, а продолжают раздаваться!
Eсли вы уже удалили старые серии, то предотвратить повторную закачку старых серий можно, отжав галочку в соответсвующих местах при запуске нового торрента.
--Добавлена тринадцатая, заключительная, серия шестого сезона
Седьмой сезон в 2014 году.

Яндекс.Метрика
Рейтинг@Mail.ru