Новая Зеландия: Забытый рай / New Zealand: The Forgotten Paradise (2013 Документальный, научно-познавательный, география, история, культура, исследование BDRip 720p) от denis 100

 

Создавать темы 13-Дек-2013 17:39

Информация о фильме
Название: Новая Зеландия: Забытый рай
Оригинальное название: New Zealand: The Forgotten Paradise
Год выпуска: 2013
Жанр: Документальный, научно-познавательный, география, история, культура, исследование
Выпущено: Германия, KSM
Режиссер: Аттила Тенки
Перевод: Дублированный-Сюжет фильма
Новая Зеландия - уникальная страна: маленькие острова на юго-западе Океании повторяют весь мир в миниатюре. Туристы, уставшие от популярных курортов, отправляются в Новую Зеландию за незабываемыми впечатлениями. Здесь можно насладиться роскошными пляжами и подышать горным воздухом, почувствовать ритм больших городов и уют деревень, далеких от цивилизации. Вместе с документальным фильмом "Новая Зеландия 3D. Забытый рай" вы совершите увлекательное путешествие по этой стране не выходя из дома.-Файл
Качество: BDRip 720p (исходник Blu-ray)
Видео: 1280x720, 3971 Кбит/сек, 23,976 кадр/сек, AVC, x264, [email protected], 0.180 Бит/[Пиксели*Кадры], 2pass
Аудио 1: AC-3, 448 Кбит/сек, 6 канала(ов), 48,0 КГц -Дублированный
Аудио 2: AC-3, 448 Кбит/сек, 6 канала(ов), 48,0 КГц - English
Чаптеры: есть
Субтитры: Русские
Продолжительность: 01:01:51

Скриншоты

MediaInfo

Format : Matroska
Format version : Version 2
File size : 2.15 GiB
Duration : 1h 3mn
Overall bit rate : 4 868 Kbps
Movie name : Новая Зеландия.Забытый рай.(2013).BDRip.720p.[denis100]
Encoded date : UTC 2013-12-13 09:36:32
Writing application : mkvmerge v5.8.0 ('No Sleep / Pillow') built on Sep 2 2012 15:37:04
Writing library : libebml v1.2.3 + libmatroska v1.3.0
Video
ID : 1
Format : AVC
Format/Info : Advanced Video Codec
Format profile : [email protected]
Format settings, CABAC : Yes
Format settings, ReFrames : 9 frames
Codec ID : V_MPEG4/ISO/AVC
Duration : 1h 3mn
Bit rate : 3 971 Kbps
Width : 1 280 pixels
Height : 720 pixels
Display aspect ratio : 16:9
Frame rate mode : Constant
Frame rate : 23.976 fps
Color space : YUV
Chroma subsampling : 4:2:0
Bit depth : 8 bits
Scan type : Progressive
Bits/(Pixel*Frame) : 0.180
Stream size : 1.72 GiB (80%)
Title : Новая Зеландия.Забытый рай.(2013).BDRip.720p.[denis100]
Writing library : x264 core 140 r2377 1ca7bb9
Encoding settings : cabac=1 / ref=9 / deblock=1:-3:-3 / analyse=0x3:0x133 / me=umh / subme=11 / psy=1 / psy_rd=1.00:0.10 / mixed_ref=1 / me_range=32 / chroma_me=1 / trellis=2 / 8x8dct=1 / cqm=0 / deadzone=21,11 / fast_pskip=0 / chroma_qp_offset=-3 / threads=6 / lookahead_threads=1 / sliced_threads=0 / nr=0 / decimate=0 / interlaced=0 / bluray_compat=0 / constrained_intra=0 / bframes=8 / b_pyramid=2 / b_adapt=2 / b_bias=0 / direct=3 / weightb=1 / open_gop=0 / weightp=2 / keyint=240 / keyint_min=23 / scenecut=40 / intra_refresh=0 / rc=2pass / mbtree=0 / bitrate=3971 / ratetol=1.0 / qcomp=0.60 / qpmin=0 / qpmax=69 / qpstep=4 / cplxblur=20.0 / qblur=0.5 / ip_ratio=1.40 / pb_ratio=1.30 / aq=1:0.90
Language : English
Default : Yes
Forced : No
Audio #1
ID : 2
Format : AC-3
Format/Info : Audio Coding 3
Mode extension : CM (complete main)
Format settings, Endianness : Big
Codec ID : A_AC3
Duration : 1h 3mn
Bit rate mode : Constant
Bit rate : 448 Kbps
Channel count : 6 channels
Channel positions : Front: L C R, Side: L R, LFE
Sampling rate : 48.0 KHz
Bit depth : 16 bits
Compression mode : Lossy
Stream size : 203 MiB (9%)
Title : Дублированный
Language : Russian
Default : Yes
Forced : No
Audio #2
ID : 3
Format : AC-3
Format/Info : Audio Coding 3
Mode extension : CM (complete main)
Format settings, Endianness : Big
Codec ID : A_AC3
Duration : 1h 3mn
Bit rate mode : Constant
Bit rate : 448 Kbps
Channel count : 6 channels
Channel positions : Front: L C R, Side: L R, LFE
Sampling rate : 48.0 KHz
Bit depth : 16 bits
Compression mode : Lossy
Stream size : 203 MiB (9%)
Title : английский
Language : English
Default : No
Forced : No
Text
ID : 4
Format : UTF-8
Codec ID : S_TEXT/UTF8
Codec ID/Info : UTF-8 Plain Text
Title : Русские
Language : Russian
Default : No
Forced : No
Menu
00:00:00.000 : en:Chapter 01
00:08:05.735 : en:Chapter 02
00:15:56.246 : en:Chapter 03
00:24:04.276 : en:Chapter 04
00:32:03.838 : en:Chapter 05
00:40:04.360 : en:Chapter 06
00:48:05.966 : en:Chapter 07
00:56:08.782 : en:Chapter 08
01:03:21.798 : en:Chapter 09
Яндекс.Метрика
Рейтинг@Mail.ru