[ Сегодня на трекере фрилич! Идет свободное скачивание без начисления Download ]

Viasat History: По железным дорогам бывшей империи / On the Rails of the Double Headed Eagle [серии 1-2 из 2]

 

Создавать темы 31-Июл-2015 16:18

Viasat History: По железным дорогам бывшей империи / On the Rails of the Double Headed Eagle
[серии 1-2 из 2]
Год выпуска: 2014
Страна: Австрия, ORF/3sat and Gernot Stadler Filmproduktion in association with the Austrian Television Fund, Land Karnten
Жанр: Документальный, история, путешествия
Продолжительность: 2x~00:51:54
Перевод: Профессиональный (одноголосый), переведено и озвучено на студии "SDI Media" перевод Валерии Ечиной, текст читает Роман Антанович
Режиссер: Bjorn Kolz и Gernot Stadler
Описание: Программа рассказывает о возникновении и развитии монументальной австро-венгерской железной дороги, которая была построена, чтобы соединить степи Галиции и побережье Адриатического моря. Большое значение придается важности железной дороги с точки зрения стратегии, особенно во время войны. Мы отправимся в путешествие по многочисленным деревням и городам, которые когда-то были частью могущественной Австро-Венгерской империи.
Качество: SATRip
Контейнер: AVI
Видео кодек: XviD
Аудио кодек: AC3
Видео: 704x400 25fps 1800kbps
Аудио: AC3, 2 ch, 192kbps

MediaInfo

Format : AVI
Format/Info : Audio Video Interleave
File size : 743 MiB
Duration : 51mn 53s
Overall bit rate : 2 001 Kbps
Writing application : VirtualDubMod 1.5.10.3 | www.virtualdub-fr.org || (build 2550/release)
Writing library : VirtualDubMod build 2550/release
Video
ID : 0
Format : MPEG-4 Visual
Format profile : Advanced [email protected]
Format settings, BVOP : 2
Format settings, QPel : Yes
Format settings, GMC : 3 warppoints
Format settings, Matrix : Default (H.263)
Codec ID : XVID
Codec ID/Hint : XviD
Duration : 51mn 53s
Bit rate : 1 800 Kbps
Width : 720 pixels
Height : 400 pixels
Display aspect ratio : 16:9
Frame rate : 25.000 fps
Color space : YUV
Chroma subsampling : 4:2:0
Bit depth : 8 bits
Scan type : Progressive
Compression mode : Lossy
Bits/(Pixel*Frame) : 0.250
Stream size : 668 MiB (90%)
Writing library : XviD 1.2.1 (UTC 2008-12-04)
Audio
ID : 1
Format : AC-3
Format/Info : Audio Coding 3
Mode extension : CM (complete main)
Format settings, Endianness : Big
Codec ID : 2000
Duration : 51mn 53s
Bit rate mode : Constant
Bit rate : 192 Kbps
Channel(s) : 2 channels
Channel positions : Front: L R
Sampling rate : 48.0 KHz
Compression mode : Lossy
Stream size : 71.3 MiB (10%)
Alignment : Split accross interleaves
Interleave, duration : 40 ms (1.00 video frame)
Interleave, preload duration : 500 ms
Скриншоты--Благодарность за предоставленный рип:
Яндекс.Метрика
Рейтинг@Mail.ru